.
Авторизация | Регистрация
Хочешь лучшие торренты? Добавь свой email!
Добавить
» » Ночь страха 2 / Fright Night 2 (2013) BDRip 720p | L2, L1 скачать через торрент бесплатно




    Ночь страха 2 / Fright Night 2 (2013) BDRip 720p | L2, L1 скачать через торрент бесплатно

    Опубликовал: Админ | Дата: 27-02-2015, 11:09 | Просмотров: 271



    Информация о фильме
    Название: Ночь страха 2
    Оригинальное название: Fright Night 2
    Год выхода: 2013
    Жанр: ужасы, комедия
    Режиссер: Эдуардо Родригез
    В ролях: Уилл Пэйн, Джейми Мюррэй, Шон Пауэр, Саша Паркинсон, Крис Уоллер, Джон-Кристиан Бейтман, Лиана Маргиняну, Алина Минзу, Ади Хостиук, Джоэль Коутинью

    О фильме: Молодые студенты колледжа внезапно узнают страшную правду о своем новом профессоре. Оказывается, их профессор — красивая молодая женщина Джерри Дэндридж — настоящая вампирша! Пытаясь донести это до остальных, ребята, сами того не желая, подписали себе смертный приговор. Потому что Джерри совершенно не хочет, чтобы ее тайна стала достоянием общественности…



    Выпущено: США
    Продолжительность: 01:39:41
    Озвучивание: Любительское (двухголосое) / Любительское (одноголосое) Xixidok

    Файл
    Формат: MKV
    Качество: BDRip 720p
    Видео: 4763 kb/s, 1280x720
    Аудио: Russian: AC3, 448 kb/s (6 ch) L2 / MP3, 192 kb/s (2 ch) L1 / English: DTS, 1510 kb/s (6 ch)
    Дополнительно: Сохранены чаптеры как на Blu-Ray





    MI

    Format : Matroska
    Format version : Version 4 / Version 2
    File size : 4.80 GiB
    Duration : 1h 39mn
    Overall bit rate : 6 894 Kbps
    Encoded date : UTC 2013-10-02 18:17:03
    Writing application : mkvmerge v6.1.0 (;Old Devil;) built on Mar 4 2013 09:10:42
    Writing library : libebml v1.3.0 libmatroska v1.4.0

    Video
    ID : 1
    Format : AVC
    Format/Info : Advanced Video Codec
    Format profile : High@L4.1
    Format settings, CABAC : Yes
    Format settings, ReFrames : 5 frames
    Codec ID : V_MPEG4/ISO/AVC
    Duration : 1h 39mn
    Bit rate : 4 763 Kbps
    Width : 1 280 pixels
    Height : 720 pixels
    Display aspect ratio : 16:9
    Frame rate : 23.976 fps
    Color space : YUV
    Chroma subsampling : 4:2:0
    Bit depth : 8 bits
    Scan type : Progressive
    Bits/(Pixel*Frame) : 0.216
    Stream size : 3.21 GiB (67%)
    Writing library : x264 core 135 r2345 f0c1c53
    Encoding settings : cabac=1 / ref=5 / deblock=1:0:0 / analyse=0x3:0x133 / me=umh / subme=7 / psy=1 / psy_rd=1.00:0.00 / mixed_ref=1 / me_range=16 / chroma_me=1 / trellis=1 / 8x8dct=1 / cqm=0 / deadzone=21,11 / fast_pskip=0 / chroma_qp_offset=-2 / threads=24 / lookahead_threads=4 / sliced_threads=0 / nr=0 / decimate=1 / interlaced=0 / bluray_compat=0 / constrained_intra=0 / bframes=3 / b_pyramid=2 / b_adapt=1 / b_bias=0 / direct=1 / weightb=1 / open_gop=0 / weightp=2 / keyint=250 / keyint_min=23 / scenecut=40 / intra_refresh=0 / rc_lookahead=40 / rc=2pass / mbtree=1 / bitrate=4763 / ratetol=1.0 / qcomp=0.60 / qpmin=0 / qpmax=69 / qpstep=4 / cplxblur=20.0 / qblur=0.5 / ip_ratio=1.40 / aq=1:1.00
    Language : English
    Default : Yes
    Forced : No

    Audio #1
    ID : 2
    Format : AC-3
    Format/Info : Audio Coding 3
    Mode extension : CM (complete main)
    Format settings, Endianness : Big
    Codec ID : A_AC3
    Duration : 1h 39mn
    Bit rate mode : Constant
    Bit rate : 448 Kbps
    Channel(s) : 6 channels
    Channel positions : Front: L C R, Side: L R, LFE
    Sampling rate : 48.0 KHz
    Bit depth : 16 bits
    Compression mode : Lossy
    Stream size : 319 MiB (6%)
    Language : Russian
    Default : Yes
    Forced : No

    Audio #2
    ID : 3
    Format : MPEG Audio
    Format version : Version 1
    Format profile : Layer 3
    Mode : Joint stereo
    Mode extension : MS Stereo
    Codec ID : A_MPEG/L3
    Codec ID/Hint : MP3
    Duration : 1h 39mn
    Bit rate mode : Constant
    Bit rate : 192 Kbps
    Channel(s) : 2 channels
    Sampling rate : 48.0 KHz
    Compression mode : Lossy
    Stream size : 137 MiB (3%)
    Language : Russian
    Default : No
    Forced : No

    Audio #3
    ID : 4
    Format : DTS
    Format/Info : Digital Theater Systems
    Codec ID : A_DTS
    Duration : 1h 39mn
    Bit rate mode : Constant
    Bit rate : 1 510 Kbps
    Channel(s) : 6 channels
    Channel positions : Front: L C R, Side: L R, LFE
    Sampling rate : 48.0 KHz
    Bit depth : 24 bits
    Compression mode : Lossy
    Stream size : 1.05 GiB (22%)
    Title : DTS
    Language : English
    Default : No
    Forced : No

    Menu
    00:00:00.000 : en:00:00:00.000
    00:04:26.266 : en:00:04:26.266
    00:07:53.973 : en:00:07:53.973
    00:12:35.713 : en:00:12:35.713
    00:14:43.549 : en:00:14:43.549
    00:18:23.144 : en:00:18:23.144
    00:24:15.329 : en:00:24:15.329
    00:27:25.352 : en:00:27:25.352
    00:32:58.810 : en:00:32:58.810
    00:35:49.773 : en:00:35:49.773
    00:39:04.384 : en:00:39:04.384
    00:46:16.983 : en:00:46:16.983
    00:50:34.406 : en:00:50:34.406
    00:56:34.182 : en:00:56:34.182
    01:03:10.286 : en:01:03:10.286
    01:06:37.869 : en:01:06:37.869
    01:10:28.599 : en:01:10:28.599
    01:12:00.149 : en:01:12:00.149
    01:14:49.944 : en:01:14:49.944
    01:20:10.139 : en:01:20:10.139
    01:25:10.480 : en:01:25:10.480
    01:28:41.274 : en:01:28:41.274
    01:33:22.388 : en:01:33:22.388
    01:36:09.764 : en:01:36:09.764
    Скриншоты

    Размер: 4.80 GB (5154634877 Bytes)

    Ночь страха 2 / Fright Night 2 (2013) BDRip 720p | L2, L1 скачать через торрент бесплатно
    загрузка...
    Рейтинг →
     (голосов: 1, оценка 4/5, голосовать можно 1 раз )

    Другие торренты по теме:

  • Ночь страха / Fright Night (2011) HDRip-AVC | D
  • Ночь страха 2 / Fright Night 2 (2013) BDRip 720p | L1
  • Ночь страха 2 / Fright Night 2 (2013) HDRip | L1
  • Ночь страха 2 / Fright Night 2 (2013) DVDRip | L1
  • Ночь страха 2 / Fright Night 2 (2013) HDRip | L2 скачать через торрент бесплатно
  • Ночь страха 2 / Fright Night 2 (2013) BDRip 720p | L2
  • Ночь страха 2 / Fright Night 2 (2013) BDRip 720p | iTunes
  • Ночь страха 2 / Fright Night 2 (2013) HDRip | iTunes


    • Комментарии (0):

      Информация

      Информация

        Посетители, находящиеся в группе Гости, не могут оставлять комментарии в данной новости.

        ↓ Меню



        ↓ Опрос

        А Вы добавили сайт в закладки?
        Да
        Не


        Top 10 за месяц (Фильмы)