.
Авторизация | Регистрация
» » Поможем расстаться / Schlussmacher (2013) BDRip 720p | L1 скачать через торрент бесплатно




    Поможем расстаться / Schlussmacher (2013) BDRip 720p | L1 скачать через торрент бесплатно

    Опубликовал: Админ | Дата: 27-02-2015, 11:09 | Просмотров: 262




    Информация о фильме
    Название: Поможем расстаться
    Оригинальное название: Schlussmacher
    Год выпуска: 2013
    Жанр: Комедия
    Режиссер: Маттиас Швайгхефер, Торстен Кюнстлер
    В ролях: Анна Бедерке, Геннадий Венгеров, Катрин де Леан, Маттиас Швайгхефер, Ричард ван Вейден

    О фильме: Сотрудник агентства, которое помогает парам разойтись, получает новое задание: ему предстоит помочь своим собственным родителям.



    Выпущено: Германия
    Продолжительность: 01:50:30
    Озвучивание: Любительское (одноголосое)

    Файл
    Формат: MKV
    Качество: BDRip 720p
    Видео: 4133 kb/s, 1280x544
    Аудио: Russian: AC3, 448 (5 ch) / German: DTS, 1510 kb/s (6 ch)






    MI

    Format : Matroska
    Format version : Version 4 / Version 2
    File size : 4.70 GiB
    Duration : 1h 50mn
    Overall bit rate : 6 090 Kbps
    Encoded date : UTC 2013-10-02 15:55:07
    Writing application : mkvmerge v6.1.0 (;Old Devil;) built on Mar 4 2013 09:10:42
    Writing library : libebml v1.3.0 libmatroska v1.4.0

    Video
    ID : 1
    Format : AVC
    Format/Info : Advanced Video Codec
    Format profile : High@L4.1
    Format settings, CABAC : Yes
    Format settings, ReFrames : 10 frames
    Codec ID : V_MPEG4/ISO/AVC
    Duration : 1h 50mn
    Bit rate : 4 133 Kbps
    Width : 1 280 pixels
    Height : 544 pixels
    Display aspect ratio : 2.35:1
    Frame rate : 23.976 fps
    Color space : YUV
    Chroma subsampling : 4:2:0
    Bit depth : 8 bits
    Scan type : Progressive
    Bits/(Pixel*Frame) : 0.248
    Stream size : 3.10 GiB (66%)
    Writing library : x264 core 125 r2208 d9d2288
    Encoding settings : cabac=1 / ref=10 / deblock=1:-3:-3 / analyse=0x3:0x113 / me=umh / subme=10 / psy=1 / psy_rd=1.00:0.05 / mixed_ref=1 / me_range=32 / chroma_me=1 / trellis=2 / 8x8dct=1 / cqm=0 / deadzone=21,11 / fast_pskip=0 / chroma_qp_offset=-2 / threads=8 / lookahead_threads=1 / sliced_threads=0 / nr=0 / decimate=1 / interlaced=0 / bluray_compat=0 / constrained_intra=0 / bframes=4 / b_pyramid=2 / b_adapt=2 / b_bias=0 / direct=3 / weightb=1 / open_gop=0 / weightp=2 / keyint=250 / keyint_min=23 / scenecut=40 / intra_refresh=0 / rc=2pass / mbtree=0 / bitrate=4133 / ratetol=1.0 / qcomp=0.70 / qpmin=0 / qpmax=69 / qpstep=4 / cplxblur=20.0 / qblur=0.5 / ip_ratio=1.40 / pb_ratio=1.30 / aq=2:1.00
    Language : German
    Default : Yes
    Forced : No

    Audio #1
    ID : 2
    Format : AC-3
    Format/Info : Audio Coding 3
    Mode extension : CM (complete main)
    Format settings, Endianness : Big
    Codec ID : A_AC3
    Duration : 1h 50mn
    Bit rate mode : Constant
    Bit rate : 448 Kbps
    Channel(s) : 5 channels
    Channel positions : Front: L C R, Side: L R
    Sampling rate : 48.0 KHz
    Bit depth : 16 bits
    Compression mode : Lossy
    Stream size : 354 MiB (7%)
    Language : Russian
    Default : Yes
    Forced : No

    Audio #2
    ID : 3
    Format : DTS
    Format/Info : Digital Theater Systems
    Codec ID : A_DTS
    Duration : 1h 50mn
    Bit rate mode : Constant
    Bit rate : 1 510 Kbps
    Channel(s) : 6 channels
    Channel positions : Front: L C R, Side: L R, LFE
    Sampling rate : 48.0 KHz
    Bit depth : 24 bits
    Compression mode : Lossy
    Stream size : 1.17 GiB (25%)
    Language : German
    Default : No
    Forced : No
    Скриншоты

    Размер: 4.70 GB (5048000243 Bytes)

    Поможем расстаться / Schlussmacher (2013) BDRip 720p | L1 скачать через торрент бесплатно
    загрузка...
    Рейтинг →
     (голосов: 1, оценка 5/5, голосовать можно 1 раз )

    Другие торренты по теме:

  • Поможем расстаться / Schlussmacher (2013) HDRip | L1 скачать через торрент бесплатно
  • Поможем расстаться / Schlussmacher (2013) BDRip 1080p | L1 скачать через торрент бесплатно
  • Поможем расстаться / Вы уволены! / Schlussmacher (2013) HDRip скачать через торрент бесплатно
  • Поможем расстаться / Schlussmacher (2013) HDRip от CINEMANIA | L2 скачать через торрент бесплатно


    • Комментарии (0):

      Информация

      Информация

        Посетители, находящиеся в группе Гости, не могут оставлять комментарии в данной новости.

        ↓ Меню



        ↓ Опрос

        А Вы добавили сайт в закладки?
        Да
        Не


        Top 10 за неделю (Фильмы)