.
Авторизация | Регистрация
» » Обитель призраков / Laa-thaa-phii / Ghost case / Ghost game (2006) Blu-ray Remux 1080p от MediaClub скачать через торрент бесплатно




    Обитель призраков / Laa-thaa-phii / Ghost case / Ghost game (2006) Blu-ray Remux 1080p от MediaClub скачать через торрент бесплатно

    Опубликовал: Админ | Дата: 27-02-2015, 11:09 | Просмотров: 319



    Информация о фильме
    Название: Обитель призраков
    Оригинальное название: Laa-thaa-phii / Ghost case / Ghost game
    Год выхода: 2006
    Жанр: Ужасы
    Режиссер: Саравут Вичьенсарн
    В ролях: Пачорнпол Джантиенг, Китилак Чулакрин, Таньянан Махарипон, Понгсак Раттанапхонг, Супатсири Патомнупонг

    О фильме:
    Участники популярного реалити-шоу надеются получить солидные гонорары за то, что проведут ночь в старом концлагере, где, по слухам, остались неупокоенными души замученных в его застенках жертв. Но вскоре все понимают, что леденящие кровь истории не были вымыслом и обитатели потустороннего мира действительно существуют. Люди оказались пленниками в обители призраков, жаждущих отомстить живым за свои немыслимые страдания.
    MediaInfo
    Полное имя : H:ФильмСделать русский переводГотовые сделаные релизыObitel.prizrakov.2006.x264.Blu-ray.Remux.1080p.RUS.THA.FRA-MediaClub.mkv
    Формат : Matroska
    Версия формата : Version 2
    Размер файла : 16,7 Гбайт
    Продолжительность : 1 ч. 48 м.
    Режим общего битрейта : Переменный
    Общий поток : 22,0 Мбит/сек
    Название фильма : Obitel prizrakov (2006) BDRemux 1080p-MediaClub-=Викс=
    Дата кодирования : UTC 2013-09-23 01:43:54
    Программа кодирования : mkvmerge v5.8.0 (;No Sleep / Pillow;) built on Sep 2 2012 15:37:04
    Библиотека кодирования : libebml v1.2.3 libmatroska v1.3.0

    Видео
    Идентификатор : 1
    Формат : AVC
    Формат/Информация : Advanced Video Codec
    Профиль формата : High@L4.1
    Параметр CABAC формата : Да
    Параметр ReFrames формата : 4 кадра
    Параметр GOP формата : M=3, N=18
    Режим смешивания : Container profile=Unknown@0.0
    Идентификатор кодека : V_MPEG4/ISO/AVC
    Продолжительность : 1 ч. 48 м.
    Вид битрейта : Переменный
    Битрейт : 18,3 Мбит/сек
    Максимальный битрейт : 24,0 Мбит/сек
    Ширина : 1920 пикселей
    Высота : 1080 пикселей
    Соотношение сторон : 16:9
    Режим частоты кадров : Постоянный
    Частота кадров : 24,000 кадра/сек
    Стандарт вещания : NTSC
    Цветовое пространство : YUV
    Субдискретизация насыщенности : 4:2:0
    Битовая глубина : 8 бит
    Тип развёртки : Прогрессивная
    Бит/(Пиксели*Кадры) : 0.368
    Размер потока : 13,9 Гбайт (83%)
    Язык : Thai
    Default : Нет
    Forced : Нет
    Основные цвета : BT.709
    Характеристики трансфера : BT.709
    Коэффициенты матрицы : BT.709

    Аудио #1
    Идентификатор : 2
    Формат : AC-3
    Формат/Информация : Audio Coding 3
    Расширение режима : CM (complete main)
    Параметр Endianness формата : Big
    Идентификатор кодека : A_AC3
    Продолжительность : 1 ч. 48 м.
    Вид битрейта : Постоянный
    Битрейт : 192 Кбит/сек
    Каналы : 2 канала
    Расположение каналов : Front: L R
    Частота : 48,0 КГц
    Битовая глубина : 16 бит
    Метод сжатия : С потерями
    Размер потока : 150 Мбайт (1%)
    Заголовок : PD
    Язык : Russian
    Default : Да
    Forced : Нет

    Аудио #2
    Идентификатор : 3
    Формат : DTS
    Формат/Информация : Digital Theater Systems
    Режим : 16
    Параметр Endianness формата : Big
    Идентификатор кодека : A_DTS
    Продолжительность : 1 ч. 48 м.
    Вид битрейта : Постоянный
    Битрейт : 1509 Кбит/сек
    Каналы : 6 каналов
    Расположение каналов : Front: L C R, Side: L R, LFE
    Частота : 48,0 КГц
    Битовая глубина : 24 бит
    Метод сжатия : С потерями
    Размер потока : 1,15 Гбайт (7%)
    Язык : Thai
    Default : Нет
    Forced : Нет

    Аудио #3
    Идентификатор : 4
    Формат : DTS
    Формат/Информация : Digital Theater Systems
    Режим : 16
    Параметр Endianness формата : Big
    Идентификатор кодека : A_DTS
    Продолжительность : 1 ч. 48 м.
    Вид битрейта : Постоянный
    Битрейт : 1509 Кбит/сек
    Каналы : 6 каналов
    Расположение каналов : Front: L C R, Side: L R, LFE
    Частота : 48,0 КГц
    Битовая глубина : 24 бит
    Метод сжатия : С потерями
    Размер потока : 1,15 Гбайт (7%)
    Язык : French
    Default : Нет
    Forced : Нет

    Меню
    00:00:00.000 : :Chapter 01
    00:17:17.375 : :Chapter 02
    00:30:07.666 : :Chapter 03
    00:46:24.833 : :Chapter 04
    01:05:18.208 : :Chapter 05
    01:27:10.000 : :Chapter 06




    Страна: Таиланд
    Студия: NGR
    Продолжительность: 01:48:58
    Перевод: Профессиональный двухголосый

    Файл
    Кодек: x264
    Качество: Blu-ray Remux 1080p
    Видео: MPEG-4 AVC, 18.3 Мбит/с, 1920x1080, 24.000 кадр/с
    Звук:
    Аудио #1: Русский (AC3, 2 ch,192 Кбит/с) / Профессиональный двухголосый
    Аудио #2: Тайский (DTS, 6 ch, 1509 Кбит/с)
    Аудио #3: Французский (DTS, 6 ch, 1509 Кбит/с)

    Семпл

    Скриншоты


    Релиз от: Работа с аудио - Викс
    Залил: Викс
    Размер: 16.71 GB (17945153115 Bytes)

    Обитель призраков / Laa-thaa-phii / Ghost case / Ghost game (2006) Blu-ray Remux 1080p от MediaClub скачать через торрент бесплатно
    загрузка...
    Рейтинг →
     (голосов: 1, оценка 4/5, голосовать можно 1 раз )

    Другие торренты по теме:

  • Обитель призраков / Laa-thaa-phii / Ghost case (2006) BDRip-AVC от MediaClub торрент скачать бесплатно
  • Обитель призраков / Laa-thaa-phii / Ghost case (2006) BDRip от MediaClub скачать через торрент бесплатно
  • Обитель призраков / Laa-thaa-phii / Ghost case (2006) BDRip 720p от MediaClub торрент скачать бесплатно


    • Комментарии (0):

      Информация

      Информация

        Посетители, находящиеся в группе Гости, не могут оставлять комментарии в данной новости.

        ↓ Меню



        ↓ Опрос

        А Вы добавили сайт в закладки?
        Да
        Не


        Top 10 за неделю (Фильмы)