.
Авторизация | Регистрация
Хочешь лучшие торренты? Добавь свой email!
Добавить
» » Подозреваемый / В поле зрения / Person of Interest (2011-2013) HDTVRip-AVC 720p l LostFilm скачать через торрент бесплатно




    Подозреваемый / В поле зрения / Person of Interest (2011-2013) HDTVRip-AVC 720p l LostFilm скачать через торрент бесплатно

    Опубликовал: Админ | Дата: 27-02-2015, 11:09 | Просмотров: 361



    Подозреваемый / В поле зрения / Person of Interest





    Год выпуска: 2011-2013
    Выпущено: США,Канал OCBS
    Жанр: Драма, Триллер
    Продолжительность эпизода: 00:42:00
    Сезон: 1-3
    Серия: 1-46
    Количество серий в сезоне:ХХ
    Озвучка:Профессиональная многоголосая закадровая (LostFilm.TV)

    Субтитры: НЕТ


    Сайт сериала:



    Режиссер: Ричард Дж. Льюис, Дэвид Семел


    В ролях: Джеймс Кэвизел, Майкл Эмерсон, Stanislav Shkilnyi, Узиманн, Тараджи П. Хенсон, Кевин Чэпмен, Куртеней Тейлор, Крис Чок, Жермен Кроуфорд, Брайан Д’Арси Джеймс, и др.



    Предполагаемо погибший бывший агент ЦРУ Риз объединяется с таинственным миллионером чтобы предотвращать преступления. Подготовка Риза в проведении операций под прикрытием привлекает внимание миллионера Финча, гения-программиста, который изобрел программу, позволяющую предсказывать преступные склонности людей на базе анализа поведения. Используя последние достижения техники, эти двое часто преступают закон, используя навыки Риза и бесконечное богатство Финча, и останавливают преступников еще до совершения преступления. Действия Риза привлекают к себе внимание детектива Картер из отдела убийств и полицейского Фуско, которого Риз использует в своих целях. Риз и Финч понимают, что правильный человек с правильной информацией в нужное время и в нужном месте может изменить все.


    ТЕХ. ДАННЫЕ:

    color=Blue1 Сезон
    Качество: HDTVRip-AVC 720p
    Формат: MPEG-4
    Видео кодек: H264
    Видео: 2507Кбит/сек,1280х720(16.9),в 23.970кадр/сек,AVC(Baseline@L3.1)(1Ref Frames)
    Аудио кодек: AAC
    Аудио Russian Dolby Digital 5.1: 448Кбит/сек,44.1КГц,6каналов,AAC,(Version4)(LC)
    2 Сезон
    Качество: HDTVRip-AVC 720p
    Формат: MPEG-4
    Видео кодек: H264
    Видео: 3115Кбит/сек,1280х720(16.9),в 25.000кадр/сек,AVC(Baseline@L3.1)(1Ref Frames)
    Аудио кодек: AAC
    Аудио Russian Dolby Digital 5.1: 456Кбит/сек,44.1КГц,6каналов,AAC,(Version4)(LC)
    3 Сезон
    Качество: HDTVRip-AVC 720p
    Формат: MPEG-4
    Видео кодек: H264
    Видео: 3137Кбит/сек,1280х720(16.9),в 25.000кадр/сек,AVC(Baseline@L3.1)(1Ref Frames)
    Аудио кодек: AAC
    Аудио Russian Dolby Digital 5.1: 265Кбит/сек,44.1КГц,6каналов,AAC,(Version4)(LC)



    Доп. информация:

    Русская звуковая дорожка сделана путем наложения чистого голоса озвучивателей на центральный канал оригинальной дорожки. Качество идентично английской звуковой дорожке.



    Список эпизодов сезона

    1 Сезон
    01. Пилот (Pilot) PROPER
    02. Призраки (Ghosts)
    03. Перепостановка задачи (Mission Creep)
    04. Исцели себя сам (Cura Te Ipsum)
    05. Правосудие (Judgment)
    06. Исправление (The Fix)
    07. Свидетель (Witness)
    08. Недруг (Foe)
    09. Убрать Картер (Get Carter)
    10. Обвал номеров (Number Crunch)
    11. Смотритель (Super)
    12. Наследие (Legacy)
    13. Вызов Рут (Root Cause)
    14 Волк и волчонок (Wolf and Cub)
    15 Круговая порука (Blue Code)
    16 Риск (Risk)
    17 Малышка (Baby Blue)
    18 Кризис личности (Identity Crisis)
    19 Плоть и кровь (Flesh and Blood)
    20 Рыбий закон (Matsya Nyaya)
    21 Долгих лет жизни (Many Happy Returns)
    22 Нехорошее дело (No Good Deed)
    23 Барьер (Firewall)


    2 Сезон
    01 Запасной вариант (The Contingency)
    02 Плохой код (Bad Code)
    03 Маскарад (Masquerade)
    04 Головорез (Triggerman)
    05 Неудачный заголовок (Bury the Lede)
    06 Большой путь (High Road)
    07 Необходимо (Critical)
    08 Пока смерть не разлучит нас (Til Death)
    09 Наложенный платеж (C.O.D.)
    10 Витрина (Shadow Box)
    11 .2#960;R (2 Pi R)
    12 Дилемма заключённого (Prisoner;s Dilemma)
    13 Точный расчет (Dead Reckoning)
    14 Богатей (One Percent)
    15 Мест нет (Booked Solid)

    16 Значимость (Relevance)
    17 Протей (Proteus)
    18 Ва-банк (All In)
    19 Троянский конь (Trojan Horse)
    20 При смерти (In Extremis)
    21 День зеро (Zero Day)
    22 Режим бога (God Mode)


    3 Сезон
    01 Свобода (Liberty)




    MediaInfo 1 сезона

    Общее
    Полное имя : F:К И Н ОС Е Р И А Л ЫPerson_of_Interest_s01_-_s02_rusLostFilm.TVx264.DD5.1.Nikolai.Baranov.HDTVRip.AVC_(720p)S01Person_of_Interest_2011_s01_e001_rusLostFilm.TVx264.DD5.1.Nikolai.Baranov.HDTVRip.AVC_(720p).mp4
    Формат : MPEG-4
    Профиль формата : Base Media
    Идентификатор кодека : isom
    Размер файла : 929 Мбайт
    Продолжительность : 43 м.
    Режим общего битрейта : Переменный
    Общий поток : 2959 Кбит/сек
    Дата кодирования : UTC 2011-11-13 18:14:55
    Дата пометки : UTC 2011-11-13 18:14:55
    Программа кодирования : Lavf51.12.1

    Видео
    Идентификатор : 1
    Формат : AVC
    Формат/Информация : Advanced Video Codec
    Профиль формата : Baseline@L3.1
    Параметр CABAC формата : Нет
    Параметр ReFrames формата : 1 кадр
    Параметр GOP формата : M=1, N=12
    Идентификатор кодека : avc1
    Идентификатор кодека/Информация : Advanced Video Coding
    Продолжительность : 43 м.
    Вид битрейта : Переменный
    Битрейт : 2507 Кбит/сек
    Максимальный битрейт : 3750 Кбит/сек
    Ширина : 1280 пикселей
    Высота : 720 пикселей
    Соотношение сторон : 16:9
    Режим частоты кадров : Постоянный
    Частота кадров : 23,976 кадра/сек
    Частота кадров в оригинале : 24,000 кадра/сек
    Цветовое пространство : YUV
    Субдискретизация насыщенности : 4:2:0
    Битовая глубина : 8 бит
    Тип развёртки : Прогрессивная
    Бит/(Пиксели*Кадры) : 0.113
    Размер потока : 787 Мбайт (85%)
    Дата кодирования : UTC 2011-11-13 18:14:55
    Дата пометки : UTC 2011-11-13 18:14:55

    Аудио
    Идентификатор : 2
    Формат : AAC
    Формат/Информация : Advanced Audio Codec
    Профиль формата : LC
    Идентификатор кодека : 40
    Продолжительность : 43 м.
    Вид битрейта : Переменный
    Битрейт : 448 Кбит/сек
    Каналы : 6 каналов
    Расположение каналов : Front: L C R, Side: L R, LFE
    Частота : 44,1 КГц
    Метод сжатия : С потерями
    Размер потока : 141 Мбайт (15%)
    Дата кодирования : UTC 2011-11-13 18:14:55
    Дата пометки : UTC 2011-11-13 18:14:55



    MediaInfo 2 сезона

    Общее
    Полное имя : F:К И Н ОС Е Р И А Л ЫPerson_of_Interest_s01_-_s02_rusLostFilm.TVx264.DD5.1.Nikolai.Baranov.HDTVRip.AVC_(720p)S02Person_of_Interest_2012_s02_e001_rusLostFilm.TVx264.DD5.1.Nikolai.Baranov.HDTVRip.AVC_(720p).mp4
    Формат : MPEG-4
    Профиль формата : Base Media
    Идентификатор кодека : isom
    Размер файла : 1,10 Гбайт
    Продолжительность : 44 м.
    Режим общего битрейта : Переменный
    Общий поток : 3575 Кбит/сек
    Дата кодирования : UTC 2012-10-13 09:11:16
    Дата пометки : UTC 2012-10-13 09:11:16
    Программа кодирования : Lavf51.12.1

    Видео
    Идентификатор : 1
    Формат : AVC
    Формат/Информация : Advanced Video Codec
    Профиль формата : Baseline@L3.1
    Параметр CABAC формата : Нет
    Параметр ReFrames формата : 1 кадр
    Параметр GOP формата : M=1, N=12
    Идентификатор кодека : avc1
    Идентификатор кодека/Информация : Advanced Video Coding
    Продолжительность : 44 м.
    Вид битрейта : Переменный
    Битрейт : 3115 Кбит/сек
    Максимальный битрейт : 4500 Кбит/сек
    Ширина : 1280 пикселей
    Высота : 720 пикселей
    Соотношение сторон : 16:9
    Режим частоты кадров : Постоянный
    Частота кадров : 25,000 кадров/сек
    Частота кадров в оригинале : 24,000 кадра/сек
    Цветовое пространство : YUV
    Субдискретизация насыщенности : 4:2:0
    Битовая глубина : 8 бит
    Тип развёртки : Прогрессивная
    Бит/(Пиксели*Кадры) : 0.135
    Размер потока : 985 Мбайт (87%)
    Дата кодирования : UTC 2012-10-13 09:11:16
    Дата пометки : UTC 2012-10-13 09:11:16

    Аудио
    Идентификатор : 2
    Формат : AAC
    Формат/Информация : Advanced Audio Codec
    Профиль формата : LC
    Идентификатор кодека : 40
    Продолжительность : 44 м.
    Вид битрейта : Переменный
    Битрейт : 455 Кбит/сек
    Каналы : 6 каналов
    Расположение каналов : Front: L C R, Side: L R, LFE
    Частота : 44,1 КГц
    Метод сжатия : С потерями
    Размер потока : 144 Мбайт (13%)
    Дата кодирования : UTC 2012-10-13 09:11:16
    Дата пометки : UTC 2012-10-13 09:11:16



    MediaInfo 3 сезона

    General
    Полное имя : F:К И Н ОС Е Р И А Л ЫPerson_of_Interest_s01_-_s03_rusLostFilm.TVx264.DD5.1.Nikolai.Baranov.HDTVRip.AVC_(720p)S03Person_of_Interest_2013_s03_e01_rusLostFilm.TVx264.DD5.1.Nikolai.Baranov.HDTVRip.AVC_(720p).mp4
    Формат : MPEG-4
    Профиль формата : Base Media
    Идентификатор кодека : isom
    Размер файла : 1.04 GiB
    Продолжительность : 43mn 39s
    Режим общего битрейта : Variable
    Общий поток : 3 404 Kbps
    Дата кодирования : UTC 2013-09-28 11:18:45
    Дата пометки : UTC 2013-09-28 11:18:45
    Программа кодирования : Lavf51.12.1

    Video
    Идентификатор : 1
    Формат : AVC
    Формат/Информация : Advanced Video Codec
    Профиль формата : Baseline@L3.1
    Параметр CABAC формата : No
    Параметр ReFrames формата : 1 frame
    Параметр GOP формата : M=1, N=12
    Идентификатор кодека : avc1
    Идентификатор кодека/Информация : Advanced Video Coding
    Продолжительность : 43mn 38s
    Вид битрейта : Variable
    Битрейт : 3 137 Kbps
    Максимальный битрейт : 4 500 Kbps
    Ширина : 1 280 pixels
    Высота : 720 pixels
    Соотношение сторон : 16:9
    Режим частоты кадров : Constant
    Частота кадров : 25.000 fps
    Частота кадров в оригинале : 24.000 fps
    Цветовое пространство : YUV
    Субдискретизация насыщенности : 4:2:0
    Битовая глубина : 8 bits
    Тип развёртки : Progressive
    Бит/(Пиксели*Кадры) : 0.136
    Размер потока : 979 MiB (92%)
    Дата кодирования : UTC 2013-09-28 11:18:45
    Дата пометки : UTC 2013-09-28 11:18:45

    Audio
    Идентификатор : 2
    Формат : AAC
    Формат/Информация : Advanced Audio Codec
    Профиль формата : LC
    Идентификатор кодека : 40
    Продолжительность : 43mn 39s
    Вид битрейта : Variable
    Битрейт : 265 Kbps
    Каналы : 6 channels
    Расположение каналов : Front: L C R, Side: L R, LFE
    Частота : 44.1 KHz
    Метод сжатия : Lossy
    Размер потока : 82.0 MiB (8%)
    Дата кодирования : UTC 2013-09-28 11:18:45
    Дата пометки : UTC 2013-09-28 11:18:45



    Скриншоты 1 сезона






    Скриншоты 2 сезона







    Скриншоты 3 сезона







    1 сезон


    2 сезон


    3 сезон


    Внимание! Раздача пополняется по мере выхода новых серий!!


    Внимание! Раздача ведётся путём добавления новых серий!


    Раздача ведётся путём добавления новых серий; при каждом добавлении создётся новый торрент.
    Чтобы начать докачку новой серии, пользователям необходимо сделать следующее:
    1. остановить скачивание,
    2. удалить старый торрент у себя из клиента (старые серии удалять не надо),
    3. скачать новый торрент и запустить его у себя в клиенте вместо старого, при этом указать клиенту путь в старую папку, куда и должно происходить скачивание новых серий.

    Ваш клиент при этом должен произвести хеширование (проверку) старой папки (если не производит сам - помогите ему сделать это), и будет докачивать только те серии которых у вас ещё нет. Старые серии при этом не удаляются, а продолжают раздаваться!

    Eсли вы уже удалили старые серии, то предотвратить повторную закачку старых серий можно, отжав галочку в соответсвующих местах при запуске нового торрента. По возможности, желательно не удалять старые серии как можно дольше, чтобы релизёр не столько продолжал раздавать старые серии, а смог сконцентрироваться на новых.

    Совет для тех, кто не хочет ждать перехеширования:
    Создайте ещё одну папку рядом с папкой сериала (рядом, а не в ней!!!). Каждую новую серию после удачной загрузки копируйте в новую папку так чтобы ваша основная папка всегда была пуста. Когда ваш новый торрент предложит вам закачать все файлы, выберете только последнюю. Для сидирования же укажите адрес новой папки.

    Как закачать отдельный файл из торрента или докачать ранее пропущенные файлы торрента!

    Как закачать отдельный файл

    1. Открыть торрент
    2. Снять галки с тех файлов торрента, которые мы не хотим закачивать. Оставляем только на нужных нам файлах (файле).
    3. Нажать О.К.

    В клиенте utorrent

    Инструкция

    1) Открыть торрент


    2) Снять галки с тех файлов торрента, которые мы не хотим закачивать:

    * либо вручную, снимая с каждого файла галку( скрин №1)
    * либо, нажав кнопку Снять метки (Select None), сняв сразу со всех файлов(скрин №2)
    №1

    №2

    Оставляем только на нужных нам файлах (файле).

    3)Нажать О.К




    Внимание!!!02.10. 2013. РАЗДАЧА ОБНОВЛЕНА.финал сезона.ОБНОВИТЕ ТОРЕНТ ФАЙЛ.ПРИЯТНОГО ПРОСМОТРА.


    Релиз от: Nikolai.Baranov









    Залил: NIKOLAI.BARANOV
    Размер: 45.95 GB (49333859644 Bytes)

    Подозреваемый / В поле зрения / Person of Interest (2011-2013) HDTVRip-AVC 720p l LostFilm скачать через торрент бесплатно
    загрузка...
    Рейтинг →
     (голосов: 1, оценка 4/5, голосовать можно 1 раз )

    Другие торренты по теме:



      Комментарии (0):

      Информация

      Информация

        Посетители, находящиеся в группе Гости, не могут оставлять комментарии в данной новости.

        ↓ Меню



        ↓ Опрос

        А Вы добавили сайт в закладки?
        Да
        Не


        Top 10 за месяц (Фильмы)