.
Авторизация | Регистрация
Хочешь лучшие торренты? Добавь свой email!
Добавить
» » Одинокий рейнджер / The Lone Ranger (2013) BDRip-AVC | Лицензия торрент скачать бесплатно




    Одинокий рейнджер / The Lone Ranger (2013) BDRip-AVC | Лицензия торрент скачать бесплатно

    Опубликовал: Админ | Дата: 27-02-2015, 11:09 | Просмотров: 377




    Год выпуска: 2013
    Производство: США, Silver Bullet Productions (II), Jerry Bruckheimer Films
    Жанр: Вестерн, Приключения, Боевик
    Перевод: Дублированный | Лицензия |
    Субтитры: русский, английский

    Режиссер: Гор Вербински

    Продюсер: Джерри Брукхаймер, Гор Вербински, Джонни Деп
    Актеры: Джонни Депп, Арми Хаммер, Том Уилкинсон, Уильям Фихтнер, Барри Пеппер, Джеймс Бэдж Дэйл, Хелена Бонем Картер, Рут Уилсон, Брайант Принц, Мэйсон Илстон Кук

    Описание фильма:
    История блюстителя закона Джона Рейда, который с помощью индейца Тонто стал легендарным мстителем в маске, стоящим на защите справедливости. Тонто с юмором и небылицами повествует о тех приключениях, которые пришлось пережить двум непохожим друг на друга героям, сведенным судьбой для того чтобы вместе сражаться против общего врага. Им приходится противостоять жадности и коррупции во времена, когда появление первых железных дорог изменило представление о власти и могуществе в мире.



    Продолжительность: 02:29:33
    Качество видео: BDRip-AVC
    Видео: 1024x428 (2.397) , 2109 kb/s, 23.976 fps, 0.201 Bits/Pixel
    Аудио #1: 48 kHz, AC3 Dolby Digital, 3/2 (L,C,R,l,r) LFE ch, ~448 kbps (Русский) / Дубляж, Лицензия
    Аудио #2: 48 kHz, AC3 Dolby Digital, 3/2 (L,C,R,l,r) LFE ch, ~448 kbps (Английский) / Оригинал
    Семпл

    Релиз от:

    MediaInfo:
    Формат : Matroska
    Версия формата : Version 2
    Размер файла : 3,14 Гбайт
    Продолжительность : 2 ч. 29 м.
    Общий поток : 3007 Кбит/сек
    Название фильма : Odinokiy.reyndzher.2013.D.HDRip.x264.NNM-CLUB.GIU
    Дата кодирования : UTC 2013-10-03 15:15:10
    Программа кодирования : mkvmerge v2.9.9 (;Tutu;) built on Nov 25 2009 21:13:32
    Библиотека кодирования : libebml v0.7.9 libmatroska v0.8.1

    Видео
    Идентификатор : 1
    Формат : AVC
    Формат/Информация : Advanced Video Codec
    Профиль формата : High@L4.1
    Параметр CABAC формата : Да
    Параметр ReFrames формата : 10 кадров
    Идентификатор кодека : V_MPEG4/ISO/AVC
    Продолжительность : 2 ч. 29 м.
    Битрейт : 2109 Кбит/сек
    Ширина : 1024 пикселя
    Высота : 428 пикселей
    Соотношение сторон : 2,40:1
    Режим частоты кадров : Постоянный
    Частота кадров : 23,976 кадра/сек
    Цветовое пространство : YUV
    Субдискретизация насыщенности : 4:2:0
    Битовая глубина : 8 бит
    Тип развёртки : Прогрессивная
    Бит/(Пиксели*Кадры) : 0.201
    Размер потока : 2,14 Гбайт (68%)
    Библиотека кодирования : x264 core 119 r2106 07efeb4
    Настройки программы : cabac=1 / ref=10 / deblock=1:-3:-3 / analyse=0x3:0x133 / me=umh / subme=10 / psy=1 / psy_rd=1.00:0.00 / mixed_ref=1 / me_range=32 / chroma_me=1 / trellis=2 / 8x8dct=1 / cqm=0 / deadzone=21,11 / fast_pskip=1 / chroma_qp_offset=-2 / threads=12 / sliced_threads=0 / nr=0 / decimate=0 / interlaced=0 / bluray_compat=0 / constrained_intra=0 / bframes=8 / b_pyramid=2 / b_adapt=2 / b_bias=0 / direct=3 / weightb=1 / open_gop=0 / weightp=2 / keyint=250 / keyint_min=20 / scenecut=40 / intra_refresh=0 / rc_lookahead=45 / rc=2pass / mbtree=1 / bitrate=2109 / ratetol=1.0 / qcomp=0.75 / qpmin=0 / qpmax=69 / qpstep=4 / cplxblur=20.0 / qblur=0.5 / ip_ratio=1.40 / aq=1:1.00
    Язык : English
    Default : Нет
    Forced : Нет

    Аудио #1
    Идентификатор : 2
    Формат : AC-3
    Формат/Информация : Audio Coding 3
    Расширение режима : CM (complete main)
    Параметр Endianness формата : Big
    Идентификатор кодека : A_AC3
    Продолжительность : 2 ч. 29 м.
    Вид битрейта : Постоянный
    Битрейт : 448 Кбит/сек
    Каналы : 6 каналов
    Расположение каналов : Front: L C R, Side: L R, LFE
    Частота : 48,0 КГц
    Битовая глубина : 16 бит
    Метод сжатия : С потерями
    Размер потока : 479 Мбайт (15%)
    Заголовок : AC3.448.Kbps (6ch) Russian (Дубляж)
    Язык : Russian
    Default : Да
    Forced : Нет

    Аудио #2
    Идентификатор : 3
    Формат : AC-3
    Формат/Информация : Audio Coding 3
    Расширение режима : CM (complete main)
    Параметр Endianness формата : Big
    Идентификатор кодека : A_AC3
    Продолжительность : 2 ч. 29 м.
    Вид битрейта : Постоянный
    Битрейт : 448 Кбит/сек
    Каналы : 6 каналов
    Расположение каналов : Front: L C R, Side: L R, LFE
    Частота : 48,0 КГц
    Битовая глубина : 16 бит
    Метод сжатия : С потерями
    Размер потока : 479 Мбайт (15%)
    Заголовок : AC3.448.Kbps (6ch) English
    Язык : English
    Default : Нет
    Forced : Нет

    Текст #1
    Идентификатор : 4
    Формат : UTF-8
    Идентификатор кодека : S_TEXT/UTF8
    Идентификатор кодека/Информация : UTF-8 Plain Text
    Заголовок : Russian (Full)
    Default : Нет
    Forced : Нет

    Текст #2
    Идентификатор : 5
    Формат : UTF-8
    Идентификатор кодека : S_TEXT/UTF8
    Идентификатор кодека/Информация : UTF-8 Plain Text
    Заголовок : Russian (Forced)
    Язык : Russian
    Default : Нет
    Forced : Нет

    Текст #3
    Идентификатор : 6
    Формат : UTF-8
    Идентификатор кодека : S_TEXT/UTF8
    Идентификатор кодека/Информация : UTF-8 Plain Text
    Заголовок : English (SDH)
    Язык : English
    Default : Нет
    Forced : Нет

    Текст #4
    Идентификатор : 7
    Формат : UTF-8
    Идентификатор кодека : S_TEXT/UTF8
    Идентификатор кодека/Информация : UTF-8 Plain Text
    Заголовок : English (Forced)
    Язык : English
    Default : Нет
    Forced : Нет

    Меню
    00:00:00.000 : en:Chapter 00
    00:08:16.120 : en:Chapter 01
    00:13:38.776 : en:Chapter 02
    00:24:51.406 : en:Chapter 03
    00:29:03.032 : en:Chapter 04
    00:32:05.840 : en:Chapter 05
    00:40:32.012 : en:Chapter 06
    00:45:29.643 : en:Chapter 07
    00:53:29.664 : en:Chapter 08
    01:01:05.662 : en:Chapter 09
    01:10:01.614 : en:Chapter 10
    01:16:12.317 : en:Chapter 11
    01:24:45.455 : en:Chapter 12
    01:28:39.731 : en:Chapter 13
    01:35:35.187 : en:Chapter 14
    01:41:13.984 : en:Chapter 15
    01:46:35.806 : en:Chapter 16
    01:50:02.178 : en:Chapter 17
    01:53:55.203 : en:Chapter 18
    01:56:15.259 : en:Chapter 19
    02:01:51.095 : en:Chapter 20
    02:12:07.210 : en:Chapter 21
    02:17:13.934 : en:Chapter 22
    02:20:20.286 : en:Chapter 23


    Log x264
    x264 info: profile Main, level 4.1
    x264 info: frame I:2369 Avg QP:15.61 size: 68513
    x264 info: frame P:52695 Avg QP:19.25 size: 21716
    x264 info: frame B:160073 Avg QP:21.34 size: 6754
    x264 info: consecutive B-frames: 3.3% 3.5% 10.7% 33.7% 16.7% 27.6% 3.1% 1.0% 0.4%
    Скриншоты

    Размер: 3.14 GB (3373148188 Bytes)

    Одинокий рейнджер / The Lone Ranger (2013) BDRip-AVC | Лицензия торрент скачать бесплатно
    загрузка...
    Рейтинг →
     (голосов: 1, оценка 4/5, голосовать можно 1 раз )

    Другие торренты по теме:

  • Одинокий рейнджер / The Lone Ranger (2013) HD-1080p | D | Трейлер
  • Одинокий рейнджер / The Lone Ranger (2013) BDRip-AVC от HELLYWOOD | Лицензия
  • Одинокий рейнджер / The Lone Ranger (2013) BDRip от HQ-ViDEO | Лицензия
  • Одинокий рейнджер / The Lone Ranger (2013) HDRip от Scarabey | D | Лицензия
  • Одинокий рейнджер / The Lone Ranger (2013) HDRip-AVC от ViRTUS | D
  • Одинокий рейнджер / The Lone Ranger (2013) BDRip от Youtracker
  • Одинокий рейнджер / The Lone Ranger (2013) BDRip 1080p | D | Лицензия
  • Одинокий рейнджер / The Lone Ranger (2013) BDRip | Лицензия


    • Комментарии (0):

      Информация

      Информация

        Посетители, находящиеся в группе Гости, не могут оставлять комментарии в данной новости.

        ↓ Меню



        ↓ Опрос

        А Вы добавили сайт в закладки?
        Да
        Не


        Top 10 за месяц (Фильмы)