.
Авторизация | Регистрация
» » Кукольный дом / Dollhouse (2009-2010) DVDRip от Generalfilm | КПК торрент скачать бесплатно




    Кукольный дом / Dollhouse (2009-2010) DVDRip от Generalfilm | КПК торрент скачать бесплатно

    Опубликовал: Админ | Дата: 27-02-2015, 11:09 | Просмотров: 319



    Информация о фильме
    Название: Кукольный дом
    Оригинальное название: Dollhouse
    Год выхода: 2009
    Жанр: Фантастика, триллер, драма, детектив
    Режиссер: Дэвид Соломон, Джосс Уидон, Тим Минеар
    В ролях: Элайза Душку, Эми Акер, Рид Даймонд, Энвер Джокай, Фран Кранц, Дичен Лакман, Гарри Ленникс, Тамо Пеникетт, Оливия Уильямс

    О фильме:
    Они будут тем, кем вы захотите и сделают то, что вам нужно. Они говорят на всех языках и обладают всеми навыками сразу. Они живут в месте, где стираются сожаления, боль, воспоминания и говорят, что они пришли туда добровольно. Но…так ли это? Девушка по имени Эко живет в таинственном Кукольном доме и является членом незаконной и подпольной группы людей, чья индивидуальность была стерта. Она — Кукла. Нанимаемые богачами и влиятельными людьми, Куклы не просто выполняют свои роли, а полностью становятся теми, кого хочет видеть очередной клиент. В их разум может быть загружено бесчисленное количество информации, и каждый раз, после выполнения задания она полностью стирается. Но однажды память Эко будто просыпается от тяжелого сна, и она начинает медленно, по кусочкам собирать свое таинственное прошлое…



    Список серий:
    1.0. Эко — оригинальный пилот
    1.1. Призрак
    1.2. Цель
    1.3. Боязнь сцены
    1.4. Тихий час
    1.5. Искренняя вера
    1.6. Человек без значка
    1.7. Отголоски
    1.8. Потребности
    1.9. Шпион в доме любви
    1.10. Дом с привидением
    1.11. Спящая красавица
    1.12. Омега
    1.13. Эпитафия первая
    2.1. Обеты
    2.2. Инстинкт
    2.3. Моя прелесть
    2.4. Собственность
    2.5. Глаз общественности
    2.6. Левая рука
    2.7. Знакомьтесь, Джейн Доу
    2.8. Величайшая любовь
    2.9. Сокращение ущерба
    2.10. Чердак
    2.11. Доходное дело
    2.12. Доходяга
    2.13. Эпитафия вторая: Возвращение

    Страна: США
    Студия: 20th Century Fox Television, Boston Diva Productions
    Продолжительность: 26 x ~00:44:00
    Перевод: Профессиональный (многоголосый, закадровый)

    Файл
    Формат: MP4
    Качество: DVDRip | КПК
    Видео: MPEG-4 AVC (x264), 640x360, ~500 kbps, 23.976 fps
    Аудио: AAC LC, 48.0 KHz, 2 ch, 128 Kbps
    Субтитры: Нет

    Семпл

    Скриншоты

    MI
    K:киноKukolniy.Dom.AVC.DVDRip.KPK.GeneralfilmKukolniy.Dom.S02.2010.AVC.DVDRip.KPK.GeneralfilmKukolniy.Dom.s02e08.2010.AVC.DVDRip.KPK.Generalfilm.mp4
    Format : MPEG-4
    Format profile : Base Media
    Codec ID : isom
    File size : 198 MiB
    Duration : 44mn 1s
    Overall bit rate mode : Variable
    Overall bit rate : 630 Kbps
    Encoded date : UTC 2013-09-29 14:04:53
    Tagged date : UTC 2013-09-29 14:04:53
    Video #1
    ID : 1
    Format : AVC
    Format/Info : Advanced Video Codec
    Format profile : Baseline@L4.1
    Format settings, CABAC : No
    Format settings, ReFrames : 6 frames
    Codec ID : avc1
    Codec ID/Info : Advanced Video Coding
    Duration : 44mn 1s
    Bit rate : 500 Kbps
    Maximum bit rate : 3 034 Kbps
    Width : 640 pixels
    Height : 360 pixels
    Display aspect ratio : 16:9
    Frame rate mode : Constant
    Frame rate : 23.976 fps
    Color space : YUV
    Chroma subsampling : 4:2:0
    Bit depth : 8 bits
    Scan type : Progressive
    Bits/(Pixel*Frame) : 0.091
    Stream size : 157 MiB (79%)
    Writing library : x264 core 116 r2074 2641b9e
    Encoding settings : cabac=0 / ref=6 / deblock=1:-1:-1 / analyse=0x1:0x111 / me=umh / subme=7 / psy=1 / psy_rd=1.00:0.00 / mixed_ref=0 / me_range=16 / chroma_me=1 / trellis=1 / 8x8dct=0 / cqm=0 / deadzone=21,11 / fast_pskip=0 / chroma_qp_offset=-2 / threads=3 / sliced_threads=0 / nr=0 / decimate=1 / interlaced=0 / bluray_compat=0 / constrained_intra=0 / bframes=0 / weightp=0 / keyint=250 / keyint_min=23 / scenecut=40 / intra_refresh=0 / rc_lookahead=60 / rc=2pass / mbtree=1 / bitrate=500 / ratetol=1.0 / qcomp=0.60 / qpmin=0 / qpmax=69 / qpstep=4 / cplxblur=20.0 / qblur=0.5 / ip_ratio=1.40 / aq=1:1.00
    Encoded date : UTC 2013-09-29 14:04:53
    Tagged date : UTC 2013-09-29 14:05:11
    Audio #2
    ID : 2
    Format : AAC
    Format/Info : Advanced Audio Codec
    Format profile : LC
    Codec ID : 40
    Duration : 44mn 1s
    Bit rate mode : Variable
    Bit rate : 128 Kbps
    Maximum bit rate : 163 Kbps
    Channel(s) : 2 channels
    Channel positions : Front: L R
    Sampling rate : 48.0 KHz
    Compression mode : Lossy
    Stream size : 40.2 MiB (20%)
    Encoded date : UTC 2013-09-29 14:05:06
    Tagged date : UTC 2013-09-29 14:05:11

    Релиз от:
    Залил: toys_watch
    Размер: 5.35 GB (5740292436 Bytes)

    Кукольный дом / Dollhouse (2009-2010) DVDRip от Generalfilm | КПК торрент скачать бесплатно
    загрузка...
    Рейтинг →
     (голосов: 1, оценка 5/5, голосовать можно 1 раз )

    Другие торренты по теме:

  • Кукольный дом / Dollhouse (2012) WEB-DLRip торрент скачать бесплатно
  • Кукольный дом торрент скачать бесплатно


    • Комментарии (0):

      Информация

      Информация

        Посетители, находящиеся в группе Гости, не могут оставлять комментарии в данной новости.

        ↓ Меню



        ↓ Опрос

        А Вы добавили сайт в закладки?
        Да
        Не


        Top 10 за неделю (Фильмы)