.
Авторизация | Регистрация
Хочешь лучшие торренты? Добавь свой email!
Добавить
» » После нашей эры / After Earth (2013) BDRemux 1080p | Лицензия торрент скачать бесплатно




    После нашей эры / After Earth (2013) BDRemux 1080p | Лицензия торрент скачать бесплатно

    Опубликовал: Админ | Дата: 27-02-2015, 11:09 | Просмотров: 369



    Информация о фильме
    Название: После нашей эры
    Оригинальное название: After Earth
    Год выпуска: 2013
    Жанр: Фантастика, приключения, боевик
    Выпущено: США, Blinding Edge Pictures, Columbia Pictures, Overbrook Entertainment
    Режиссер: М. Найт Шьямалан
    В ролях: Уилл Смит, Джейден Смит, Зои Кравиц, Изабель Фурман, Кристофер Хивджу, Софи Оконедо, Дэвид Денман, Гленн Моршауэр, Линкольн Льюис

    О фильме: События разворачиваются через тысячу лет после катастрофы, вынудившей человечество покинуть Землю. Новым домом становится планета под названием Нова Прайм. Легендарный генерал Сайфер Рейдж возвращается с очередного боевого задания в семью, которая раньше обходилась без его родительского внимания, чтобы стать отцом своему 13-летнему сыну Китаю. Во время астероидной бури летательный аппарат с папой и сыном на борту терпит крушение, падая на незнакомую и опасную Землю. И пока Рейдж-старший на последнем дыхании лежит среди обломков своего корабля, сын должен пересечь враждебный ландшафт, чтобы запустить их спасательный маячок. Ни о чем большем юноша в своей жизни не мечтал: быть солдатом, как отец, — его заветное желание. Сегодня у него есть шанс проявить себя.



    Качество: Blu-Ray Remux (1080p)
    Видео: MPEG-4 AVC, 24956 Кбит/с, 1920x1080, 23.976 кадр/с
    Аудио: Русский, украинский (AC3, 6 ch, 640 Кбит/с), английский (DTS-HD MA, 6 ch, 2270 Кбит/с), (AC3, 6 ch, 640 Кбит/с)
    Размер: 20.37 ГБ
    Продолжительность: 01:40:02
    Перевод: Дублированный лицензия
    Субтитры: Русские, английские
    MI
    Общее
    Уникальный идентификатор : 215102555361431674937432666601841351011 (0xA1D33EC89AB699A18DB5DFB92A31D963)
    Полное имя : D:После.нашей.эры-After.Earth.(2013).BDRemux.1080p (1).mkv
    Формат : Matroska
    Версия формата : Version 2
    Размер файла : 20,4 Гбайт
    Продолжительность : 1 ч. 40 м.
    Режим общего битрейта : Переменный
    Общий поток : 29,2 Мбит/сек
    Название фильма : After Earth (2013) / Lelya_K for NNM-Club
    Дата кодирования : UTC 2013-10-03 22:05:45
    Программа кодирования : mkvmerge v6.3.0 (;You can;t stop me!;) built on Jun 28 2013 20:09:41
    Библиотека кодирования : libebml v1.3.0 libmatroska v1.4.0

    Видео
    Идентификатор : 1
    Формат : AVC
    Формат/Информация : Advanced Video Codec
    Профиль формата : High@L4.1
    Параметр CABAC формата : Да
    Параметр ReFrames формата : 2 кадра
    Идентификатор кодека : V_MPEG4/ISO/AVC
    Продолжительность : 1 ч. 40 м.
    Вид битрейта : Переменный
    Ширина : 1920 пикселей
    Высота : 1080 пикселей
    Соотношение сторон : 16:9
    Режим частоты кадров : Постоянный
    Частота кадров : 23,976 кадра/сек
    Цветовое пространство : YUV
    Субдискретизация насыщенности : 4:2:0
    Битовая глубина : 8 бит
    Тип развёртки : Прогрессивная
    Заголовок : После.нашей.эры-After.Earth.(2013).BDRemux.1080p
    Язык : English
    Default : Да
    Forced : Нет

    Аудио #1
    Идентификатор : 2
    Формат : AC-3
    Формат/Информация : Audio Coding 3
    Расширение режима : CM (complete main)
    Параметр Endianness формата : Big
    Идентификатор кодека : A_AC3
    Продолжительность : 1 ч. 40 м.
    Вид битрейта : Постоянный
    Битрейт : 640 Кбит/сек
    Каналы : 6 каналов
    Расположение каналов : Front: L C R, Side: L R, LFE
    Частота : 48,0 КГц
    Битовая глубина : 16 бит
    Метод сжатия : С потерями
    Размер потока : 458 Мбайт (2%)
    Язык : Russian
    Default : Да
    Forced : Нет

    Аудио #2
    Идентификатор : 3
    Формат : AC-3
    Формат/Информация : Audio Coding 3
    Расширение режима : CM (complete main)
    Параметр Endianness формата : Big
    Идентификатор кодека : A_AC3
    Продолжительность : 1 ч. 40 м.
    Вид битрейта : Постоянный
    Битрейт : 640 Кбит/сек
    Каналы : 6 каналов
    Расположение каналов : Front: L C R, Side: L R, LFE
    Частота : 48,0 КГц
    Битовая глубина : 16 бит
    Метод сжатия : С потерями
    Размер потока : 458 Мбайт (2%)
    Язык : Ukrainian
    Default : Нет
    Forced : Нет

    Аудио #3
    Идентификатор : 4
    Формат : DTS
    Формат/Информация : Digital Theater Systems
    Профиль формата : MA / Core
    Режим : 16
    Параметр Endianness формата : Big
    Идентификатор кодека : A_DTS
    Продолжительность : 1 ч. 40 м.
    Вид битрейта : Переменный
    Битрейт : Неизвестно / 1509 Кбит/сек
    Каналы : 6 каналов
    Расположение каналов : Front: L C R, Side: L R, LFE
    Частота : 48,0 КГц
    Битовая глубина : 16 бит
    Метод сжатия : Без потерь / Lossy
    Заголовок : DTS-HD MA 5.1 / 2270 kbps / Original
    Язык : English
    Default : Нет
    Forced : Нет

    Аудио #4
    Идентификатор : 5
    Формат : AC-3
    Формат/Информация : Audio Coding 3
    Расширение режима : CM (complete main)
    Параметр Endianness формата : Big
    Идентификатор кодека : A_AC3
    Продолжительность : 1 ч. 40 м.
    Вид битрейта : Постоянный
    Битрейт : 640 Кбит/сек
    Каналы : 6 каналов
    Расположение каналов : Front: L C R, Side: L R, LFE
    Частота : 48,0 КГц
    Битовая глубина : 16 бит
    Метод сжатия : С потерями
    Размер потока : 458 Мбайт (2%)
    Заголовок : AC3 5.1 / 640 kbps / Deive
    Язык : English
    Default : Нет
    Forced : Нет

    Текст #1
    Идентификатор : 6
    Формат : UTF-8
    Идентификатор кодека : S_TEXT/UTF8
    Идентификатор кодека/Информация : UTF-8 Plain Text
    Заголовок : Forced
    Язык : Russian
    Default : Да
    Forced : Нет

    Текст #2
    Идентификатор : 7
    Формат : UTF-8
    Идентификатор кодека : S_TEXT/UTF8
    Идентификатор кодека/Информация : UTF-8 Plain Text
    Язык : English
    Default : Нет
    Forced : Нет

    Меню
    00:00:00.000 : en:Chapter 1
    00:08:52.698 : en:Chapter 2
    00:15:36.393 : en:Chapter 3
    00:21:34.793 : en:Chapter 4
    00:30:50.557 : en:Chapter 5
    00:36:45.953 : en:Chapter 6
    00:41:14.430 : en:Chapter 7
    00:47:06.073 : en:Chapter 8
    00:52:36.319 : en:Chapter 9
    00:59:48.585 : en:Chapter 10
    01:05:25.796 : en:Chapter 11
    01:11:10.182 : en:Chapter 12
    01:15:47.334 : en:Chapter 13
    01:20:17.687 : en:Chapter 14
    01:24:38.782 : en:Chapter 15
    01:29:57.392 : en:Chapter 16

    Скриншоты



    Размер: 20.37 GB (21873489774 Bytes)

    После нашей эры / After Earth (2013) BDRemux 1080p | Лицензия торрент скачать бесплатно
    загрузка...
    Рейтинг →
     (голосов: 1, оценка 5/5, голосовать можно 1 раз )

    Другие торренты по теме:

  • После нашей эры / After Earth (2013) HDRip 1080p | Трейлер
  • OST - После нашей эры / After Earth (2013) MP3
  • После нашей эры / After Earth (2013) WEB-DLRip | iTunes Russia
  • После нашей эры / After Earth (2013) WEB-DL 720p | iTunes
  • После нашей эры / After Earth (2013) WEB-DLRip от Youtracker | D | iTunes Russia
  • После нашей эры / After Earth (2013) WEB-DLRip-AVC от Youtracker | D | iTunes Russia
  • После нашей эры / After Earth (2013) WEB-DLRip от Scarabey | iTunes Russia
  • После нашей эры / After Earth (2013) WEB-DLRip от Dalemake | iTunes


    • Комментарии (0):

      Информация

      Информация

        Посетители, находящиеся в группе Гости, не могут оставлять комментарии в данной новости.

        ↓ Меню



        ↓ Опрос

        А Вы добавили сайт в закладки?
        Да
        Не


        Top 10 за месяц (Фильмы)