.
Авторизация | Регистрация
Хочешь лучшие торренты? Добавь свой email!
Добавить
» » Мерзлая земля / The Frozen Ground (2013) BDRip 720p | D | Лицензия торрент скачать бесплатно




    Мерзлая земля / The Frozen Ground (2013) BDRip 720p | D | Лицензия торрент скачать бесплатно

    Опубликовал: Админ | Дата: 27-02-2015, 11:09 | Просмотров: 392



    Информация о фильме
    Название: Мерзлая земля
    Оригинальное название: The Frozen Ground
    Год выпуска: 2013
    Жанр: Триллер, криминал
    Выпущено: США, Grindstone Entertainment Group, Emmett/Furla Films, Cheetah Vision
    Режиссер: Скотт Уокер
    В ролях: Николас Кейдж, Джон Кьюсак, Фифти Сент, Ванесса Энн Хадженс, Рада Митчелл, Дин Норрис, Кэтрин ЛаНаса, Джоди Лин О’Кифи, Мэтт Джералд, Джина Мантенья

    О фильме: Все были уверены, что Роберт Хансен — приличный семьянин, владелец пекарни и славный охотник. Никто не подозревал, что на самом деле он — безжалостный маньяк, который похитил и убил более двадцати женщин. И только 17-летней Синди Полсон удалось сбежать от убийцы. Она наводит на след маньяка полицейского, который начинает опасное расследование. Ему никто не верит: Хансен — слишком приличный человек для такого обвинения… Но упорный коп знает свое дело и должен дойти до конца…



    Файл
    Качество: BDRip (720p)
    Видео: MPEG-4 AVC, 4400 Кбит/с, 1280x534
    Аудио: Русский (AC3, 6 ch, 384 Кбит/с), английский (DTS, 6 ch, 1510 Кбит/с)
    Размер: 4.63 ГБ
    Продолжительность: 01:45:34
    Перевод: Дублированный лицензия

    Семпл
    MI
    Общее
    Уникальный идентификатор : 174609748240483652363775132313660953830 (0x835C9D40EB1D36BCBFB72CFA1EFC14E6)
    Полное имя : C:1The.Frozen.Ground.2013.BluRay.720p.DTS.x264-CHDThe.Frozen.Ground.2013.BluRay.720p.DTS.x264-CHD (1).mkv
    Формат : Matroska
    Версия формата : Version 2
    Размер файла : 4,63 Гбайт
    Продолжительность : 1 ч. 45 м.
    Общий поток : 6282 Кбит/сек
    Дата кодирования : UTC 2013-10-03 20:32:56
    Программа кодирования : mkvmerge v6.3.0 (;You can;t stop me!;) built on Jun 28 2013 20:09:41
    Библиотека кодирования : libebml v1.3.0 libmatroska v1.4.0

    Видео
    Идентификатор : 1
    Формат : AVC
    Формат/Информация : Advanced Video Codec
    Профиль формата : High@L4.1
    Параметр CABAC формата : Да
    Параметр ReFrames формата : 10 кадров
    Идентификатор кодека : V_MPEG4/ISO/AVC
    Продолжительность : 1 ч. 45 м.
    Битрейт : 4400 Кбит/сек
    Ширина : 1280 пикселей
    Высота : 534 пикселя
    Соотношение сторон : 2,40:1
    Режим частоты кадров : Постоянный
    Частота кадров : 23,976 кадра/сек
    Цветовое пространство : YUV
    Субдискретизация насыщенности : 4:2:0
    Битовая глубина : 8 бит
    Тип развёртки : Прогрессивная
    Бит/(Пиксели*Кадры) : 0.268
    Размер потока : 3,14 Гбайт (68%)
    Заголовок : The.Frozen.Ground.2013
    Библиотека кодирования : x264 core 138 r2356 a1d3d17
    Настройки программы : cabac=1 / ref=10 / deblock=1:-3:-3 / analyse=0x3:0x113 / me=umh / subme=10 / psy=1 / psy_rd=1.00:0.05 / mixed_ref=1 / me_range=32 / chroma_me=1 / trellis=2 / 8x8dct=1 / cqm=0 / deadzone=21,11 / fast_pskip=0 / chroma_qp_offset=-2 / threads=18 / lookahead_threads=1 / sliced_threads=0 / nr=0 / decimate=1 / interlaced=0 / bluray_compat=0 / constrained_intra=0 / bframes=4 / b_pyramid=2 / b_adapt=2 / b_bias=0 / direct=3 / weightb=1 / open_gop=0 / weightp=2 / keyint=250 / keyint_min=23 / scenecut=40 / intra_refresh=0 / rc=2pass / mbtree=0 / bitrate=4400 / ratetol=1.0 / qcomp=0.70 / qpmin=0 / qpmax=69 / qpstep=4 / cplxblur=20.0 / qblur=0.5 / ip_ratio=1.40 / pb_ratio=1.30 / aq=2:1.00
    Язык : English
    Default : Да
    Forced : Нет

    Аудио #1
    Идентификатор : 2
    Формат : AC-3
    Формат/Информация : Audio Coding 3
    Расширение режима : CM (complete main)
    Параметр Endianness формата : Big
    Идентификатор кодека : A_AC3
    Продолжительность : 1 ч. 45 м.
    Вид битрейта : Постоянный
    Битрейт : 384 Кбит/сек
    Каналы : 6 каналов
    Расположение каналов : Front: L C R, Side: L R, LFE
    Частота : 48,0 КГц
    Битовая глубина : 16 бит
    Метод сжатия : С потерями
    Размер потока : 290 Мбайт (6%)
    Язык : Russian
    Default : Да
    Forced : Нет

    Аудио #2
    Идентификатор : 3
    Формат : DTS
    Формат/Информация : Digital Theater Systems
    Режим : 16
    Параметр Endianness формата : Big
    Идентификатор кодека : A_DTS
    Продолжительность : 1 ч. 45 м.
    Вид битрейта : Постоянный
    Битрейт : 1509 Кбит/сек
    Каналы : 6 каналов
    Расположение каналов : Front: L C R, Side: L R, LFE
    Частота : 48,0 КГц
    Битовая глубина : 24 бит
    Метод сжатия : С потерями
    Размер потока : 1,11 Гбайт (24%)
    Заголовок : DTS-CORE 1536K
    Язык : English
    Default : Нет
    Forced : Нет

    Скриншоты


    Размер: 4.63 GB (4973599869 Bytes)

    Мерзлая земля / The Frozen Ground (2013) BDRip 720p | D | Лицензия торрент скачать бесплатно
    загрузка...
    Рейтинг →
     (голосов: 1, оценка 5/5, голосовать можно 1 раз )

    Другие торренты по теме:

  • Мерзлая земля / The Frozen Ground (2013) HD 1080p | Трейлер
  • Мерзлая земля / The Frozen Ground (2013) WEB-DLRip | Звук с TS
  • Мерзлая земля / The Frozen Ground (2013) WEB-DLRip-AVC | Звук с TS
  • Мерзлая земля / The Frozen Ground (2013) WEB-DLRip-AVC | Чистый звук
  • Мерзлая земля / The Frozen Ground (2013) WEB-DLRip | Чистый звук
  • Мерзлая земля / The Frozen Ground (2013) WEB-DLRip-AVC от Youtracker | Чистый звук
  • Мерзлая земля / The Frozen Ground (2013) WEB-DLRip от Scarabey | D | Чистый звук
  • Мерзлая земля / The Frozen Ground (2013) WEB-DLRip от Scarabey | D


    • Комментарии (0):

      Информация

      Информация

        Посетители, находящиеся в группе Гости, не могут оставлять комментарии в данной новости.

        ↓ Меню



        ↓ Опрос

        А Вы добавили сайт в закладки?
        Да
        Не


        Top 10 за месяц (Фильмы)