.
Авторизация | Регистрация
» » Мертвец в Тумбстоуне / Dead in Tombstone (2013) HDRip от Youtracker | D | Лицензия торрент скачать бесплатно




    Мертвец в Тумбстоуне / Dead in Tombstone (2013) HDRip от Youtracker | D | Лицензия торрент скачать бесплатно

    Опубликовал: Админ | Дата: 27-02-2015, 11:09 | Просмотров: 309

    Мертвец в Тумбстоуне / Dead in Tombstone



    Год выпуска: 2013
    Страна: США
    Жанр: ужасы, фэнтези, боевик, вестерн
    Продолжительность: 01:39:53
    Перевод: Профессиональный (полное дублирование) | Лицензия
    Субтитры: нет

    Режиссер: Роэль Рейн / Roel Rein?

    В ролях: Дэнни Трехо, Энтони Майкл Холл, Дина Мейер, Микки Рурк, Ричард Диллэйн, Колин Мейс, Эмиль Хостина, Овидиу Никулеску, Ронан Саммерс, Эдвард Экрут

    Описание: Сюжет вращается вокруг мексиканского бандита по имени Герреро Эрнандес, которого предательски убил родной брат, свежевызволенный из тюрьмы. Заключивший сделку с Дьяволом с Эль Диабло, Эрнандес возвращается в мир живых, чтобы во всём разобраться и отомстить...



    Раздача от:

    Автор рипа: _Flash

    Качество:HDRip
    Формат: AVI

    Видео: 656x368, 23.976 fps, XviD build 65 ~910 kbps avg, 0.16 bit/pixel
    Аудио: 48 kHz, MPEG Layer 3, 2 ch, ~128.00 kbps avg

    MI

    Общее
    Полное имя : D:Mertvec.v.Tumbstoune.2013.D.HDRip.745mb.YTN.By_Flash.avi
    Формат : AVI
    Формат/Информация : Audio Video Interleave
    Размер файла : 747 Мбайт
    Продолжительность : 1 ч. 39 м.
    Общий поток : 1045 Кбит/сек
    Программа кодирования : VirtualDubMod 1.5.10.3 | www.virtualdub-fr.org || (build 2550/release)
    Библиотека кодирования : VirtualDubMod build 2550/release

    Видео
    Идентификатор : 0
    Формат : MPEG-4 Visual
    Профиль формата : Advanced Simple@L5
    Параметр BVOP формата : 1
    Параметр QPel формата : Нет
    Параметр GMC формата : Без точки перехода
    Параметр матрицы формата : Выборочная
    Идентификатор кодека : XVID
    Идентификатор кодека/Подсказка : XviD
    Продолжительность : 1 ч. 39 м.
    Битрейт : 908 Кбит/сек
    Ширина : 656 пикселей
    Высота : 368 пикселей
    Соотношение сторон : 16:9
    Частота кадров : 23,976 кадра/сек
    Цветовое пространство : YUV
    Субдискретизация насыщенности : 4:2:0
    Битовая глубина : 8 бит
    Тип развёртки : Прогрессивная
    Метод сжатия : С потерями
    Бит/(Пиксели*Кадры) : 0.157
    Размер потока : 648 Мбайт (87%)
    Библиотека кодирования : XviD 65

    Аудио
    Идентификатор : 1
    Формат : MPEG Audio
    Версия формата : Version 1
    Профиль формата : Layer 3
    Идентификатор кодека : 55
    Идентификатор кодека/Подсказка : MP3
    Продолжительность : 1 ч. 39 м.
    Вид битрейта : Постоянный
    Битрейт : 128 Кбит/сек
    Каналы : 2 канала
    Частота : 48,0 КГц
    Метод сжатия : С потерями
    Размер потока : 91,5 Мбайт (12%)
    Выравнивание : Соединение по промежуткам
    Продолжительность промежутка : 42 мс. (1,00 видеокадр)
    Время предзагрузки промежутка : 504 мс.
    Библиотека кодирования : L3.99r
    Залил: Flash_
    Размер: 746.55 MB (782815232 Bytes)


    Мертвец в Тумбстоуне / Dead in Tombstone (2013) HDRip от Youtracker | D | Лицензия торрент скачать бесплатно
    загрузка...
    Рейтинг →
     (голосов: 1, оценка 5/5, голосовать можно 1 раз )

    Другие торренты по теме:

  • Зловещие мертвецы / The Evil Dead (1981) HDRip | A торрент скачать бесплатно
  • Любовь с мертвецом / In Love With The Dead / Chung Oi (2007) DVDRip торрент скачать бесплатно
  • Восстание мертвецов / Dead Rising / Zombrex: Dead Rising Sun (2010) DVDRip | L1 торрент скачать бесплатно
  • Рассвет мертвецов / Dawn of the Dead (2004) BDRip-AVC | Расширенная версия торрент скачать бесплатно
  • Зловещие мертвецы 2 / Evil Dead II (1987) BDRip-AVC торрент скачать бесплатно
  • Ходячие мертвецы / The Walking Dead (2012) WEB-DLRip-AVC | Fox Crime, LostFilm, Кубик в Кубе торрент скачать бесплатно
  • Улыбка мертвеца / Dead Mans Curve (1998) DVDRip | P2 торрент скачать бесплатно
  • Чем заняться мертвецу в Денвере / Things to Do in Denver When Youre Dead (1995) HDRip от Rulya74 торрент скачать бесплатно


    • Комментарии (0):

      Информация

      Информация

        Посетители, находящиеся в группе Гости, не могут оставлять комментарии в данной новости.

        ↓ Меню



        ↓ Опрос

        А Вы добавили сайт в закладки?
        Да
        Не


        Top 10 за неделю (Фильмы)