.
Авторизация | Регистрация
» » Касл / Castle (2013) WEB-DL 720p от HDClub | LostFilm торрент скачать бесплатно




    Касл / Castle (2013) WEB-DL 720p от HDClub | LostFilm торрент скачать бесплатно

    Опубликовал: Админ | Дата: 27-02-2015, 11:09 | Просмотров: 458



    Информация о фильме
    Название: Касл
    Оригинальное название: Castle
    Год выхода: 2013
    Жанр: драма, комедия, криминал, детектив
    Режиссер: Роб Боумен, Джон Терлески, Брайан Спайсер
    В ролях: Натан Филлион, Стана Катик, Сьюзэн Салливан, Молли С. Куинн, Джон Уэртас, Тамала Джонс, Шимус Девер, Рубен Сантьяго-Хадсон, Пенни Джонсон, Ари Гросс

    О фильме:
    Знакомьтесь, Ричард Касл - успешный писатель детективного жанра, который в последней книге убил своего главного героя. Но кажется, что одному из почитателей его таланта книги понравились слегка чересчур - в городе появляется подражатель, совершающий преступления, с убийственной точностью копируя способы, которыми Касл убивал в своих произведениях. И вот наш изнывающий от скуки писатель был вызван в отдел убийств Нью-йоркской полиции, чтобы помочь найти убийцу.
    Знаете ли вы, что...

    • Декорациии квартиры Ричарда Касла использовались для квартиры главного героя в сериале Лунный свет (Moonlight).
    • В шестой серии второго сезона, Касл одевает костюм космического ковбоя, это костюм Малкольма Рейнолдса из сериала Светлячок, которого играл Натан Филлион.

    Содержание

    01: Valkyrie / Валькирия
    02: Dreamworld / Мир грез



    Страна: США
    Продолжительность: 2 x ~ 00:43:00
    Перевод: Профессиональный многоголосый закадровый, LostFilm.TV

    Файл
    Кодек: MPEG-4 AVC
    Качество: WEB-DL 720p
    Видео: 1280x720 at 23.976 fps, ~4000 kbps avg
    Звук:
    Аудио#1: Russian: 48 kHz, AC3, 3/2 (L,C,R,l,r) LFE ch, ~384.00 kbps avg |Многоголосый закадровый, LostFilm.TV|
    Аудио#2: English: 48 kHz, AC3, 3/2 (L,C,R,l,r) LFE ch, ~384.00 kbps avg
    Субтитры: English

    Дорожка №1 получена наложением выделенного голоса на центр декодированного AC3.
    MI

    Общее
    Уникальный идентификатор : 177953402543018618697983507586382052174 (0x85E0942379D5A75E81D1F3C677B83B4E)
    Полное имя : Castle.S06.720p.WEB-DL.Rus.Eng.HDCLUBCastle.S06E01.720p.WEB-DL.Rus.Eng.HDCLUB.mkv
    Формат : Matroska
    Версия формата : Version 4 / Version 2
    Размер файла : 1,44 Гбайт
    Продолжительность : 42 м.
    Общий поток : 4862 Кбит/сек
    Название фильма : Castle Season 6 (2013) - Release for HDCLUB by vlaluk
    Дата кодирования : UTC 2013-09-28 10:57:19
    Программа кодирования : mkvmerge v6.3.0 (;You can;t stop me!;) built on Jun 28 2013 20:09:41
    Библиотека кодирования : libebml v1.3.0 libmatroska v1.4.0

    Видео
    Идентификатор : 1
    Формат : AVC
    Формат/Информация : Advanced Video Codec
    Профиль формата : High@L3.1
    Параметр CABAC формата : Нет
    Параметр ReFrames формата : 2 кадра
    Идентификатор кодека : V_MPEG4/ISO/AVC
    Продолжительность : 42 м.
    Битрейт : 3998 Кбит/сек
    Ширина : 1280 пикселей
    Высота : 720 пикселей
    Соотношение сторон : 16:9
    Режим частоты кадров : Постоянный
    Частота кадров : 23,976 кадра/сек
    Цветовое пространство : YUV
    Субдискретизация насыщенности : 4:2:0
    Битовая глубина : 8 бит
    Тип развёртки : Прогрессивная
    Бит/(Пиксели*Кадры) : 0.181
    Размер потока : 1,18 Гбайт (82%)
    Заголовок : Season 6, Episode 01: Valkyrie / Валькирия - Release for HDCLUB by vlaluk
    Язык : English
    Default : Да
    Forced : Нет
    Основные цвета : BT.709
    Характеристики трансфера : BT.709
    Коэффициенты матрицы : BT.709

    Аудио #1
    Идентификатор : 2
    Формат : AC-3
    Формат/Информация : Audio Coding 3
    Расширение режима : CM (complete main)
    Параметр Endianness формата : Big
    Идентификатор кодека : A_AC3
    Продолжительность : 42 м.
    Вид битрейта : Постоянный
    Битрейт : 384 Кбит/сек
    Каналы : 6 каналов
    Расположение каналов : Front: L C R, Side: L R, LFE
    Частота : 48,0 КГц
    Битовая глубина : 16 бит
    Метод сжатия : С потерями
    Размер потока : 116 Мбайт (8%)
    Заголовок : DD 5.1 @ 384 kbps @ LostFilm
    Язык : Russian
    Default : Да
    Forced : Нет

    Аудио #2
    Идентификатор : 3
    Формат : AC-3
    Формат/Информация : Audio Coding 3
    Расширение режима : CM (complete main)
    Параметр Endianness формата : Big
    Идентификатор кодека : A_AC3
    Продолжительность : 42 м.
    Вид битрейта : Постоянный
    Битрейт : 384 Кбит/сек
    Каналы : 6 каналов
    Расположение каналов : Front: L C R, Side: L R, LFE
    Частота : 48,0 КГц
    Битовая глубина : 16 бит
    Метод сжатия : С потерями
    Размер потока : 116 Мбайт (8%)
    Заголовок : DD 5.1 @ 384 kbps
    Язык : English
    Default : Нет
    Forced : Нет

    Текст
    Идентификатор : 4
    Формат : UTF-8
    Идентификатор кодека : S_TEXT/UTF8
    Идентификатор кодека/Информация : UTF-8 Plain Text
    Заголовок : English @ SRT
    Язык : English
    Default : Нет
    Forced : Нет

    Общее
    Уникальный идентификатор : 233334927471568999582975305500076157964 (0xAF8AAC21ADACBAE6996225EB773E2C0C)
    Полное имя : Castle.S06.720p.WEB-DL.Rus.Eng.HDCLUBCastle.S06E02.720p.WEB-DL.Rus.Eng.HDCLUB.mkv
    Формат : Matroska
    Версия формата : Version 4 / Version 2
    Размер файла : 1,42 Гбайт
    Продолжительность : 42 м.
    Общий поток : 4829 Кбит/сек
    Название фильма : Castle Season 6 (2013) - Release for HDCLUB by vlaluk
    Дата кодирования : UTC 2013-10-05 08:46:44
    Программа кодирования : mkvmerge v6.3.0 (;You can;t stop me!;) built on Jun 28 2013 20:09:41
    Библиотека кодирования : libebml v1.3.0 libmatroska v1.4.0

    Видео
    Идентификатор : 1
    Формат : AVC
    Формат/Информация : Advanced Video Codec
    Профиль формата : High@L3.1
    Параметр CABAC формата : Нет
    Параметр ReFrames формата : 2 кадра
    Идентификатор кодека : V_MPEG4/ISO/AVC
    Продолжительность : 42 м.
    Битрейт : 3965 Кбит/сек
    Ширина : 1280 пикселей
    Высота : 720 пикселей
    Соотношение сторон : 16:9
    Режим частоты кадров : Постоянный
    Частота кадров : 23,976 кадра/сек
    Цветовое пространство : YUV
    Субдискретизация насыщенности : 4:2:0
    Битовая глубина : 8 бит
    Тип развёртки : Прогрессивная
    Бит/(Пиксели*Кадры) : 0.179
    Размер потока : 1,17 Гбайт (82%)
    Заголовок : Season 6, Episode 02: Dreamworld / Мир грез - Release for HDCLUB by vlaluk
    Язык : English
    Default : Да
    Forced : Нет
    Основные цвета : BT.709
    Характеристики трансфера : BT.709
    Коэффициенты матрицы : BT.709

    Аудио #1
    Идентификатор : 2
    Формат : AC-3
    Формат/Информация : Audio Coding 3
    Расширение режима : CM (complete main)
    Параметр Endianness формата : Big
    Идентификатор кодека : A_AC3
    Продолжительность : 42 м.
    Вид битрейта : Постоянный
    Битрейт : 384 Кбит/сек
    Каналы : 6 каналов
    Расположение каналов : Front: L C R, Side: L R, LFE
    Частота : 48,0 КГц
    Битовая глубина : 16 бит
    Метод сжатия : С потерями
    Размер потока : 116 Мбайт (8%)
    Заголовок : DD 5.1 @ 384 kbps @ LostFilm
    Язык : Russian
    Default : Да
    Forced : Нет

    Аудио #2
    Идентификатор : 3
    Формат : AC-3
    Формат/Информация : Audio Coding 3
    Расширение режима : CM (complete main)
    Параметр Endianness формата : Big
    Идентификатор кодека : A_AC3
    Продолжительность : 42 м.
    Вид битрейта : Постоянный
    Битрейт : 384 Кбит/сек
    Каналы : 6 каналов
    Расположение каналов : Front: L C R, Side: L R, LFE
    Частота : 48,0 КГц
    Битовая глубина : 16 бит
    Метод сжатия : С потерями
    Размер потока : 116 Мбайт (8%)
    Заголовок : DD 5.1 @ 384 kbps
    Язык : English
    Default : Нет
    Forced : Нет

    Текст
    Идентификатор : 4
    Формат : UTF-8
    Идентификатор кодека : S_TEXT/UTF8
    Идентификатор кодека/Информация : UTF-8 Plain Text
    Заголовок : English @ SRT
    Язык : English
    Default : Нет
    Forced : Нет

    Скриншоты




    Релиз от: by vlaluk
    Размер: 2.86 GB (3067554591 Bytes)

    Касл / Castle (2013) WEB-DL 720p от HDClub | LostFilm торрент скачать бесплатно
    загрузка...
    Рейтинг →
     (голосов: 1, оценка 3/5, голосовать можно 1 раз )

    Другие торренты по теме:

  • Касл / Castle (2012) WEB-DL 720p | LostFilm торрент скачать бесплатно
  • Касл / Castle (2013) WEB-DL 720p | Sub торрент скачать бесплатно
  • Касл / Castle (2013) HDTVRip 720p | Студия Gramalant торрент скачать бесплатно
  • Касл / Castle (2013) HDTV 720p | Студия Gramalant скачать через торрент бесплатно
  • Касл / Castle (2014) HDTVRip 720p | Студия Gramalant скачать через торрент бесплатно
  • Касл / Castle (2013-2014) WEB-DL 720p от HDClub | LostFilm скачать через торрент бесплатно
  • Касл / Castle (2013-2014) WEB-DLRip | LostFilm скачать через торрент бесплатно
  • Ричард Касл - Невыносимая жара (2012) PDF скачать через торрент бесплатно


    • Комментарии (0):

      Информация

      Информация

        Посетители, находящиеся в группе Гости, не могут оставлять комментарии в данной новости.

        ↓ Меню



        ↓ Опрос

        А Вы добавили сайт в закладки?
        Да
        Не


        Top 10 за неделю (Фильмы)