.
Авторизация | Регистрация
Хочешь лучшие торренты? Добавь свой email!
Добавить
» » Джиперс Криперс 2 / Jeepers Creepers II (2003) HDRip от Leon-masl | P скачать через торрент бесплатно




    Джиперс Криперс 2 / Jeepers Creepers II (2003) HDRip от Leon-masl | P скачать через торрент бесплатно

    Опубликовал: Админ | Дата: 27-02-2015, 11:09 | Просмотров: 365



    Информация о фильме
    Название: Джиперс Криперс 2
    Оригинальное название: Jeepers Creepers II
    Год выхода: 2003
    Жанр: ужасы, триллер
    Режиссер: Виктор Сальва
    В ролях: Рэй Уайз, Джонатан Брек, Гарикай Мутамбирва, Эрик Неннингер, Ники Линн Эйкокс, Мэри Дельфино, Дайана Дилэйни, Том Госсом-мл., Билли Аарон Браун, Лина Кордуэлл, Эл Сантос, Трэвис Шиффнер, Казан Батчер, Джош Хэммонд, Том Тарантини, Дрю Тайлер Белл, Люк Эдвардс, Шон Флеминг, Джастин Лонг, Боб Папенбрук, Джон Пауэлл

    О фильме:
    Раз в 23 года зловещий крылатый и когтистый монстр пробуждается от долгого сна, чтобы 23 дня насыщаться человеческой плотью и страхом своих жертв. На исходе последний день его кошмарного пира, и сегодня древнее неведомое зло ждет богатый улов — спортивная команда и очаровательные болельщицы, возвращающиеся с триумфальной игры.

    Они одни в сломанном автобусе на пустынном шоссе, где не работают мобильные телефоны и неоткуда ждать помощи. На закате прожорливое исчадие ада начнет свою кровавую вакханалию. Сможет ли его добыча дожить до утра, или эта неуязвимая тварь убьет объятых ужасом тинейджеров одного за другим?




    Страна: США
    Продолжительность: 01:44:04
    Перевод: Профессиональный (многоголосый закадровый)

    Файл
    Кодек: XviD
    Качество: HDRip с |BDRip 720p|
    Видео: 720x304, 23.976 fps, 1892 kbps
    Аудио 1: 48 kHz, AC3, 6ch, ~448 kbps....................|mvo
    Аудио 2: 48 kHz, AC3, 6ch, ~448 kbps....................|orig.ang.
    MI
    Общее
    Полное имя : Jeepers.Creepers.II.2003.HDRip.avi
    Формат : AVI
    Формат/Информация : Audio Video Interleave
    Профиль формата : OpenDML
    Размер файла : 2,04 Гбайт
    Продолжительность : 1 ч. 44 м.
    Общий поток : 2807 Кбит/сек
    Программа кодирования : VirtualDubMod 1.5.10.2 (build 2542/release)
    Библиотека кодирования : VirtualDubMod build 2542/release

    Видео
    Идентификатор : 0
    Формат : MPEG-4 Visual
    Профиль формата : Advanced Simple@L5
    Параметр BVOP формата : 1
    Параметр QPel формата : Нет
    Параметр GMC формата : Без точки перехода
    Параметр матрицы формата : Выборочная
    Идентификатор кодека : XVID
    Идентификатор кодека/Подсказка : XviD
    Продолжительность : 1 ч. 44 м.
    Битрейт : 1892 Кбит/сек
    Ширина : 720 пикс.
    Высота : 304 пикс.
    Соотношение сторон : 2,35:1
    Частота кадров : 23,976 кадр/сек
    Цветовое пространство : YUV
    Подвыборка цветности : 4:2:0
    Битовая глубина : 8 бит
    Тип развёртки : Прогрессивная
    Метод сжатия : С потерями
    Бит/(Пиксели*Кадры) : 0.361
    Размер потока : 1,38 Гбайт (67%)
    Библиотека кодирования : XviD 73

    Аудио #1
    Идентификатор : 1
    Формат : AC-3
    Формат/Информация : Audio Coding 3
    Расширение режима : CM (complete main)
    Идентификатор кодека : 2000
    Продолжительность : 1 ч. 44 м.
    Вид битрейта : Постоянный
    Битрейт : 448 Кбит/сек
    Канал(ы) : 6 канала(ов)
    Расположение каналов : Front: L C R, Side: L R, LFE
    Частота : 48,0 КГц
    Битовая глубина : 16 бит
    Метод сжатия : С потерями
    Задержка видео : 3 с. 38 мс.
    Размер потока : 333 Мбайт (16%)
    Выравнивание : Разделение по промежуткам
    Продолжительность промежутка : 42 мс. (1,00 видеокадр)
    Время предзагрузки промежутка : 500 ms

    Аудио #2
    Идентификатор : 2
    Формат : AC-3
    Формат/Информация : Audio Coding 3
    Расширение режима : CM (complete main)
    Идентификатор кодека : 2000
    Продолжительность : 1 ч. 44 м.
    Вид битрейта : Постоянный
    Битрейт : 448 Кбит/сек
    Канал(ы) : 6 канала(ов)
    Расположение каналов : Front: L C R, Side: L R, LFE
    Частота : 48,0 КГц
    Битовая глубина : 16 бит
    Метод сжатия : С потерями
    Размер потока : 333 Мбайт (16%)
    Выравнивание : Разделение по промежуткам
    Продолжительность промежутка : 42 мс. (1,00 видеокадр)
    Время предзагрузки промежутка : 500 ms
    Скриншоты


    Релиз от: Leon-masl
    Залил: leon-masl
    Размер: 2.04 GB (2190891008 Bytes)

    Джиперс Криперс 2 / Jeepers Creepers II (2003) HDRip от Leon-masl | P скачать через торрент бесплатно
    загрузка...
    Рейтинг →
     (голосов: 1, оценка 5/5, голосовать можно 1 раз )

    Другие торренты по теме:

  • Джиперс Криперс 2 / Jeepers Creepers II (2003) HDTVRip-AVC от MediaClub
  • Джиперс Криперс / Jeepers Creepers (2001) HDRip-AVC | D скачать бесплатно через торрент
  • Джиперс Криперс / Jeepers Creepers (2001) BDRip-AVC | D, A
  • Джиперс Криперс 2 / Jeepers Creepers II (2003) BDRip 720p от MediaClub | D, P скачать через торрент бесплатно
  • Джиперс Криперс 2 / Jeepers Creepers II (2003) BDRemux | D, P скачать через торрент бесплатно
  • Джиперс Криперс 2 / Jeepers Creepers II (2003) BDRip 1080p от MediaClub | D, P скачать через торрент бесплатно
  • Джиперс Криперс 2 / Jeepers Creepers II (2003) BDRip-AVC от MediaClub | D, P скачать через торрент бесплатно
  • Джиперс Криперс 2 / Jeepers Creepers II (2003) HDRip-AVC | D


    • Комментарии (0):

      Информация

      Информация

        Посетители, находящиеся в группе Гости, не могут оставлять комментарии в данной новости.

        ↓ Меню



        ↓ Опрос

        А Вы добавили сайт в закладки?
        Да
        Не


        Top 10 за месяц (Фильмы)