.
Авторизация | Регистрация
» » Мастер тай-чи / Мастер тай-цзи / Man of Tai Chi (2013) WEB-DL 720p от MULTIBITS | P, L скачать через торрент бесплатно




    Мастер тай-чи / Мастер тай-цзи / Man of Tai Chi (2013) WEB-DL 720p от MULTIBITS | P, L скачать через торрент бесплатно

    Опубликовал: Админ | Дата: 27-02-2015, 11:09 | Просмотров: 286



    Информация о фильме
    Название: Мастер тай-цзи
    Оригинальное название: Man of Tai Chi
    Год выхода: 2013
    Жанр: боевик, боевые искусства
    Режиссер: Киану Ривз
    В ролях: Киану Ривз, Ико Ювайс, Тайгер Ху Чен, Карен Мок, Джереми Меринас, Стивен Дасс, Майкл Чан, Брахим Ачаббаке, Хелен Леклерк, Оушен Хоу

    О фильме:
    Пекин. Амбициозный юноша Чэнь Линь-Ху по кличке Тигр подрабатывает скромным курьером, но после работы он превращается в молодую звезду боевых искусств, постепенно оттачивая свои навыки, следуя традициям Тайцзи Лин Кун. Обучившись размеренным и мирным движениям из Тайцзи, он приспособил их для бойцовских соревнований. Донака Марк, скрываясь от гонконгской полиции, попадает в другой столичный мегаполис, где царит неразбериха и хаос, и открывает там подпольный бойцовский клуб, в котором реальные деньги можно заработать, побеждая противников в поединках без правил, транслируемых в прямом эфире богатым клиентам. Подыскивая новую звезду, Донака пытается приманить Тигра обещанием лёгкого заработка. Вхождение в этот мир выявляет самую тёмную сторону Чэнь Линь-Ху, но ему необходимы наличные. Его навыки помогают ему на ринге, но сможет ли он, сражаясь, сохранить в себе чистоту и добропорядочность?



    Выпущено: США, Китай, Гонконг / China Film Group Corporation, Company Films, Dalian Wanda Group, Village Roadshow Pictures
    Продолжительность: 01:45:15
    Озвучивание: Профессиональное (многоголосое) Baibako / Любительское (одноголосое) Ворон
    Дополнительно: Сохранены оригинальные чаптеры

    Файл
    Формат: MKV
    Качество: WEB-DL 720p
    Видео: 3500 Кбит/с, 1280x528
    Звук: AC3, 384 Кбит/с (6 ch) / AC3, 192 Кбит/с (2 ch)

    Семпл



    MI
    Format : Matroska
    Format version : Version 4 / Version 2
    File size : 3.00 GiB
    Duration : 1h 45mn
    Overall bit rate : 4 078 Kbps
    Encoded date : UTC 2013-10-06 07:55:33
    Writing application : mkvmerge v6.4.1 (;Omega Point;) built on Sep 16 2013 22:05:10
    Writing library : libebml v1.3.0 libmatroska v1.4.1

    Video
    ID : 1
    Format : AVC
    Format/Info : Advanced Video Codec
    Format profile : High@L4.1
    Format settings, CABAC : Yes
    Format settings, ReFrames : 5 frames
    Codec ID : V_MPEG4/ISO/AVC
    Duration : 1h 45mn
    Bit rate : 3 500 Kbps
    Width : 1 280 pixels
    Height : 528 pixels
    Display aspect ratio : 2.40:1
    Frame rate mode : Constant
    Frame rate : 23.976 fps
    Color space : YUV
    Chroma subsampling : 4:2:0
    Bit depth : 8 bits
    Scan type : Progressive
    Bits/(Pixel*Frame) : 0.216
    Stream size : 2.52 GiB (84%)
    Writing library : x264 core 138 r2359 704 48 3f879a0 tMod 8-bit@all X86_64
    Encoding settings : cabac=1 / ref=5 / deblock=1:-3:-3 / analyse=0x3:0x133 / me=dia / subme=5 / psy=1 / fade_compensate=0.00 / psy_rd=1.05:0.00 / mixed_ref=1 / me_range=16 / chroma_me=1 / trellis=2 / 8x8dct=1 / cqm=0 / deadzone=21,11 / fast_pskip=0 / chroma_qp_offset=0 / threads=12 / lookahead_threads=4 / sliced_threads=0 / nr=0 / decimate=1 / interlaced=0 / bluray_compat=0 / constrained_intra=0 / fgo=0 / bframes=4 / b_pyramid=2 / b_adapt=2 / b_bias=0 / direct=3 / weightb=1 / open_gop=0 / weightp=2 / keyint=240 / keyint_min=23 / scenecut=40 / intra_refresh=0 / rc_lookahead=60 / rc=2pass / mbtree=0 / bitrate=3500 / ratetol=1.0 / qcomp=0.60 / qpmin=0:0:0 / qpmax=69:69:69 / qpstep=4 / cplxblur=20.0 / qblur=0.5 / vbv_maxrate=50000 / vbv_bufsize=62500 / nal_hrd=none / ip_ratio=1.35 / pb_ratio=1.25 / aq=2:0.80 / aq-sensitivity=10.00 / aq-factor=1.00:1.00:1.00 / aq2=0 / aq3=0
    Default : Yes
    Forced : No

    Audio #1
    ID : 2
    Format : AC-3
    Format/Info : Audio Coding 3
    Mode extension : CM (complete main)
    Format settings, Endianness : Big
    Codec ID : A_AC3
    Duration : 1h 45mn
    Bit rate mode : Constant
    Bit rate : 384 Kbps
    Channel count : 6 channels
    Channel positions : Front: L C R, Side: L R, LFE
    Sampling rate : 48.0 KHz
    Bit depth : 16 bits
    Compression mode : Lossy
    Stream size : 289 MiB (9%)
    Title : Baibako
    Language : Russian
    Default : Yes
    Forced : Yes

    Audio #2
    ID : 3
    Format : AC-3
    Format/Info : Audio Coding 3
    Mode extension : CM (complete main)
    Format settings, Endianness : Big
    Codec ID : A_AC3
    Duration : 1h 45mn
    Bit rate mode : Constant
    Bit rate : 192 Kbps
    Channel count : 2 channels
    Channel positions : Front: L R
    Sampling rate : 48.0 KHz
    Bit depth : 16 bits
    Compression mode : Lossy
    Stream size : 145 MiB (5%)
    Title : Ворон
    Language : Russian
    Default : No
    Forced : No

    Menu
    00:00:00.000 : en:Chapter 01
    00:09:17.000 : en:Chapter 02
    00:19:17.000 : en:Chapter 03
    00:29:05.000 : en:Chapter 04
    00:37:18.000 : en:Chapter 05
    00:44:35.000 : en:Chapter 06
    00:54:28.000 : en:Chapter 07
    01:01:58.000 : en:Chapter 08
    01:11:26.000 : en:Chapter 09
    01:19:44.000 : en:Chapter 10
    01:26:56.000 : en:Chapter 11
    01:37:53.000 : en:Chapter 12
    Скриншоты


    Релиз от:
    Размер: 3.00 GB (3219269302 Bytes)

    Мастер тай-чи / Мастер тай-цзи / Man of Tai Chi (2013) WEB-DL 720p от MULTIBITS | P, L скачать через торрент бесплатно
    загрузка...
    Рейтинг →
     (голосов: 1, оценка 3/5, голосовать можно 1 раз )

    Другие торренты по теме:



      Комментарии (0):

      Информация

      Информация

        Посетители, находящиеся в группе Гости, не могут оставлять комментарии в данной новости.

        ↓ Меню



        ↓ Опрос

        А Вы добавили сайт в закладки?
        Да
        Не


        Top 10 за неделю (Фильмы)