.
Авторизация | Регистрация
Хочешь лучшие торренты? Добавь свой email!
Добавить
» » Супер весёлый вечер / Super Fun Night WEB-DLRip | L2 скачать через торрент бесплатно




    Супер весёлый вечер / Super Fun Night WEB-DLRip | L2 скачать через торрент бесплатно

    Опубликовал: Админ | Дата: 27-02-2015, 11:09 | Просмотров: 494


    Год выпуска: 2013
    Страна: США
    Жанр: комедия
    Продолжительность: ~ 00:22:00
    Перевод: Любительский (двухголосый закадровый) Причудики
    Субтитры: Английские (iTunes)
    Режиссёр: Джон Ригги
    В ролях: Ребел Уилсон, Лорен Эш, Кевин Бишоп, Лиза Лапира, Дэна Ли, Дебора Бэйкер мл., Анна Кэмп, Коуди Кеннеди, Кристиан Элайджа Майо, Эди ПаттерсонОписание: Комедия расскажет о трех подругах, каждый пятничный вечер отправляющихся на поиски супер-веселья.



    Качество: WEB-DLRip
    Формат: AVI
    Видео кодек: XviD
    Аудио кодек: MP3
    Видео: 720x400 (1.80:1), 23.976 fps, ~1493 kbps avg, 0.22 bit/pixel
    Аудио #1: 48 kHz, MPEG Layer 3, 2 ch, ~128.00 kbps avg (Rus)
    Аудио #2: 48 kHz, MPEG Layer 3, 2 ch, ~128.00 kbps avg (Eng)

    MI

    Complete name : Super.Fun.Night.S01E01.XviD.WEB-DLRip.Rus.Eng-Pri4udiki.avi
    Format : AVI
    Format/Info : Audio Video Interleave
    File size : 274 MiB
    Duration : 21mn 37s
    Overall bit rate : 1 770 Kbps

    Video
    ID : 0
    Format : MPEG-4 Visual
    Format profile : Advanced Simple@L5
    Format settings, BVOP : 1
    Format settings, QPel : No
    Format settings, GMC : No warppoints
    Format settings, Matrix : Default (MPEG)
    Codec ID : XVID
    Codec ID/Hint : XviD
    Duration : 21mn 37s
    Bit rate : 1 493 Kbps
    Width : 720 pixels
    Height : 400 pixels
    Display aspect ratio : 16:9
    Frame rate : 23.976 fps
    Color space : YUV
    Chroma subsampling : 4:2:0
    Bit depth : 8 bits
    Scan type : Progressive
    Compression mode : Lossy
    Bits/(Pixel*Frame) : 0.216
    Stream size : 231 MiB (84%)
    Writing library : XviD 64

    Audio #1
    ID : 1
    Format : MPEG Audio
    Format version : Version 1
    Format profile : Layer 3
    Mode : Joint stereo
    Mode extension : MS Stereo
    Codec ID : 55
    Codec ID/Hint : MP3
    Duration : 21mn 37s
    Bit rate mode : Constant
    Bit rate : 128 Kbps
    Channel(s) : 2 channels
    Sampling rate : 48.0 KHz
    Compression mode : Lossy
    Stream size : 19.8 MiB (7%)
    Alignment : Aligned on interleaves
    Interleave, duration : 24 ms (0.58 video frame)
    Interleave, preload duration : 192 ms
    Title : Pri4udiki
    Writing library : LAME3.99r
    Encoding settings : -m j -V 4 -q 3 -lowpass 17 -b 128

    Audio #2
    ID : 2
    Format : MPEG Audio
    Format version : Version 1
    Format profile : Layer 3
    Mode : Joint stereo
    Mode extension : MS Stereo
    Codec ID : 55
    Codec ID/Hint : MP3
    Duration : 21mn 37s
    Bit rate mode : Constant
    Bit rate : 128 Kbps
    Channel(s) : 2 channels
    Sampling rate : 48.0 KHz
    Compression mode : Lossy
    Stream size : 19.8 MiB (7%)
    Alignment : Aligned on interleaves
    Interleave, duration : 24 ms (0.58 video frame)
    Interleave, preload duration : 192 ms
    Title : Original
    Writing library : LAME3.99r
    Encoding settings : -m j -V 4 -q 3 -lowpass 17 -b 128




    Залил: DGEKIGAN
    Размер: 273.75 MB (287052662 Bytes)

    Супер весёлый вечер / Super Fun Night WEB-DLRip | L2 скачать через торрент бесплатно
    загрузка...
    Рейтинг →
     (голосов: 1, оценка 5/5, голосовать можно 1 раз )

    Другие торренты по теме:

  • Супер весёлый вечер / Super Fun Night WEB-DL 720p | L2 скачать через торрент бесплатно
  • Супер весёлый вечер / Super Fun Night WEB-DL 1080p | L2 скачать через торрент бесплатно


    • Комментарии (0):

      Информация

      Информация

        Посетители, находящиеся в группе Гости, не могут оставлять комментарии в данной новости.

        ↓ Меню



        ↓ Опрос

        А Вы добавили сайт в закладки?
        Да
        Не


        Top 10 за месяц (Фильмы)