.
Авторизация | Регистрация
» » Гонка / Rush / Ambushed / Hard Rush (2013) HDRip от BitTracker торрент скачать бесплатно




    Гонка / Rush / Ambushed / Hard Rush (2013) HDRip от BitTracker торрент скачать бесплатно

    Опубликовал: Админ | Дата: 27-02-2015, 11:09 | Просмотров: 493



    Информация о фильме
    Название: Гонка
    Оригинальное название: Rush / Ambushed / Hard Rush
    Год выхода: 2013
    Жанр: боевик, драма, криминал
    Режиссер: Джорджо Серафини / Giorgio Serafini
    В ролях: Дольф Лундгрен, Винни Джонс, Рэнди Кутюр, Джанни Капальди, Карли Поуп, Сьюзи Абромейт, Дэниэл Бонжур, Холли Линч, Синтия Борначелли, Майкл Ривера

    О фильме:
    Действие в боевике разворачивается в Лос-Анджелесе, где события характеризуются лихорадочным стечением обстоятельств. Агенту Максвеллу везет, его дело венчается успехом, операция по ликвидации одной из местных группировок, которая занималась контрабандой кокаина – успешно завершена, в руках правоохранительных органов оказывается преступный главарь – Винсент Камастра, чья поимка принесла немало проблем секретным агентам. В частности сам Максвелл столкнулся с неразрешимой проблемой при раскрытии дела, в преступный мир были втянуты люди из полиции, что усложняло весь процесс, ведь могли быть многочисленные жертвы со стороны людей Максвелла.




    Страна: США, Германия, Великобритания
    Студия: Creamovies, Hollywood Media Bridge, Picture Perfect Corporation
    Продолжительность: 01:36:51
    Перевод: Любительский (двухголосый закадровый) - Парочка

    Файл
    Кодек: XviD
    Качество: HDRip (Исх. BDRip 720p)
    Видео: 656x368 (1.78:1), 23.976 fps, XviD build 50 ~938 kbps avg, 0.16 bit/pixel
    Звук: 48 kHz, MPEG Layer 3, 2 ch, ~128.00 kbps avg
    Субтитры: нет

    Семпл

    MediaInfo

    Общее
    Полное имя : S:ФильмыГонка. 2013. HDRip (AleksSin).avi
    Формат : AVI
    Формат/Информация : Audio Video Interleave
    Размер файла : 745 Мбайт
    Продолжительность : 1 ч. 36 м.
    Общий поток : 1075 Кбит/сек
    Программа кодирования : VirtualDubMod 1.5.10.3 | www.virtualdub-fr.org || (build 2550/release)
    Библиотека кодирования : VirtualDubMod build 2550/release

    Видео
    Идентификатор : 0
    Формат : MPEG-4 Visual
    Профиль формата : Advanced Simple@L5
    Параметр BVOP формата : 2
    Параметр QPel формата : Нет
    Параметр GMC формата : Без точки перехода
    Параметр матрицы формата : Default (H.263)
    Идентификатор кодека : XVID
    Идентификатор кодека/Подсказка : XviD
    Продолжительность : 1 ч. 36 м.
    Битрейт : 938 Кбит/сек
    Ширина : 656 пикс.
    Высота : 368 пикс.
    Соотношение сторон : 16:9
    Частота кадров : 23,976 кадр/сек
    Цветовое пространство : YUV
    Подвыборка цветности : 4:2:0
    Битовая глубина : 8 бит
    Тип развёртки : Прогрессивная
    Метод сжатия : С потерями
    Бит/(Пиксели*Кадры) : 0.162
    Размер потока : 650 Мбайт (87%)
    Библиотека кодирования : XviD 1.2.1 (UTC 2008-12-04)

    Аудио
    Идентификатор : 1
    Формат : MPEG Audio
    Версия формата : Version 1
    Профиль формата : Layer 3
    Идентификатор кодека : 55
    Идентификатор кодека/Подсказка : MP3
    Продолжительность : 1 ч. 36 м.
    Вид битрейта : Постоянный
    Битрейт : 128 Кбит/сек
    Каналы : 2 канала
    Частота : 48,0 КГц
    Метод сжатия : С потерями
    Размер потока : 88,7 Мбайт (12%)
    Выравнивание : Соединение по промежуткам
    Продолжительность промежутка : 42 мс. (1,00 видеокадр)
    Время предзагрузки промежутка : 504 ms
    Библиотека кодирования : LAME3.99r
    Залил: AleksSin
    Размер: 745.07 MB (781262848 Bytes)


    Гонка / Rush / Ambushed / Hard Rush (2013) HDRip от BitTracker торрент скачать бесплатно
    загрузка...
    Рейтинг →
     (голосов: 1, оценка 3/5, голосовать можно 1 раз )

    Другие торренты по теме:

  • Большие гонки / The Great Race (1965) HDTVRip-AVC от Youtracker | D, P торрент скачать бесплатно
  • Смертельная гонка 3 / Death Race 3: Inferno (2013) HDRip от RG.KikTeam торрент скачать бесплатно
  • Gas Guzzlers: Убойные гонки / Gas Guzzlers: Combat Carnage (2012) PC | RePack от Audioslave торрент скачать бесплатно
  • Смертельная гонка 3: Ад / Death Race: Inferno (2013) BDRipот HQCLUB | Лицензия | UNRATED торрент скачать бесплатно
  • Биатлон. 8-й этап. Женщины (Сочи, Россия). Индивидуальная гонка. Женщины (2013) DVB-S2 Remux 1080i торрент скачать бесплатно
  • Гонка / Drive (2007) HDTVRip | Novafilm LostFilm торрент скачать бесплатно
  • Манфред Шнайдер - Франсиско Гойя (2013) MP3 торрент скачать бесплатно
  • Гонка 2 / Race 2 (2013) BDRip 720p торрент скачать бесплатно


    • Комментарии (0):

      Информация

      Информация

        Посетители, находящиеся в группе Гости, не могут оставлять комментарии в данной новости.

        ↓ Меню



        ↓ Опрос

        А Вы добавили сайт в закладки?
        Да
        Не


        Top 10 за неделю (Фильмы)

        Мой парень – киллер / Mr. Right (2015) WEB-DL 1080p | L скачать торрент бесплатно

        (просмотров: 331)
        Ёлки 5 (2016) WEB-DLRip скачать торрент бесплатно

        (просмотров: 331)
        Разрушение / Demolition (2015) BDRemux 1080p от ExKinoRay | L скачать торрент бесплатно

        (просмотров: 301)
        Экипаж (2016) BDRip от New-Team | D | Лицензия скачать торрент бесплатно
        АНОНСЫ МОИХ РАЗДАЧ
        (просмотров: 301)
        Экипаж (2016) BDRip от New-Team | D | Лицензия скачать торрент бесплатно
        АНОНСЫ МОИХ РАЗДАЧ
        (просмотров: 271)
        Гений / Genius (2016) WEB-DLRip 1080p | Звук TS скачать торрент бесплатно

        (просмотров: 161)
        Кухня (1-5 сезоны: 1-100 серии из 100 + 2 бонуса) / 2012-2015 / РУ / DVDRip, WEB-DLRip скачать торрент бесплатно

        (просмотров: 151)
        Кухня (2015) SATRip скачать торрент бесплатно
        Кухня ? Кухня (2015) SATRip скачать торрент бесплатно
        (просмотров: 141)
        Дуэлянт (2016) WEB-DLRip от Scarabey | iTunes скачать торрент бесплатно

        (просмотров: 131)
        Демон внутри / Вскрытие Джейн Доу / The Autopsy of Jane Doe (2016) WEB-DLRip от Scarabey | P скачать торрент бесплатно
        Мы В КОНТАКТЕ =)
        (просмотров: 111)