.
Авторизация | Регистрация
» » Комендантский час / Curfew (1989) DVDRip | A торрент скачать бесплатно




    Комендантский час / Curfew (1989) DVDRip | A торрент скачать бесплатно

    Опубликовал: Админ | Дата: 27-02-2015, 11:09 | Просмотров: 516



    Информация о фильме
    Название: Комендантский час
    Оригинальное название: Curfew
    Год выхода: 1989
    Жанр: ужасы, боевик
    Режиссер: Гари Виник
    В ролях: Кайл Ричардс, Уенделл Веллман, Джон Путч, Фрэнк Миллер, Джин Брукс, Питер Нельсон, Нильс Мюллер, Нори Морган, Пегги Ри, Кристофер Найт

    О фильме:
    Двое сбежавших из камеры смертников и одержимых жаждой мести братьев начинают выслеживать всех причастных к своему обвинению — судью, огласившего приговор, психиатра, признавшего братьев вменяемыми, и конечно прокурора.




    Страна: США
    Студия: Lakeshore Entertainment, York Image Productions
    Продолжительность: 01:22:00
    Перевод: Авторский одноголосый (закадровый) Дольский

    Файл
    Кодек: XviD
    Качество: DVDRip
    Видео: 688x368, 2058 kbps, 25 fps, 0,325 Bits/(Pixel*Frame)
    Звук:
    AC3, 48 kHz, 160 kbps, 2 ch - английский
    AC3, 48 kHz, 160 kbps, 2 ch - русский
    Субтитры: Нет

    Релиз от:

    Автор рипа: _Bathory_

    Скриншоты


    MediaInfo
    General
    Complete name : F:Curfew.1989.DVDRip_by_Bathory.avi
    Format : AVI
    Format/Info : Audio Video Interleave
    File size : 1.37 GiB
    Duration : 1h 22mn
    Overall bit rate : 2 389 Kbps

    Video
    ID : 0
    Format : MPEG-4 Visual
    Format profile : Advanced Simple@L5
    Format settings, BVOP : 1
    Format settings, QPel : No
    Format settings, GMC : No warppoints
    Format settings, Matrix : Default (H.263)
    Muxing mode : Packed bitstream
    Codec ID : XVID
    Codec ID/Hint : XviD
    Duration : 1h 22mn
    Bit rate : 2 058 Kbps
    Width : 688 pixels
    Height : 368 pixels
    Display aspect ratio : 1.85:1
    Frame rate : 25.000 fps
    Color space : YUV
    Chroma subsampling : 4:2:0
    Bit depth : 8 bits
    Scan type : Progressive
    Compression mode : Lossy
    Bits/(Pixel*Frame) : 0.325
    Stream size : 1.18 GiB (86%)
    Writing library : XviD 1.2.1 (UTC 2008-12-04)

    Audio #1
    ID : 1
    Format : AC-3
    Format/Info : Audio Coding 3
    Mode extension : CM (complete main)
    Format settings, Endianness : Big
    Codec ID : 2000
    Duration : 1h 22mn
    Bit rate mode : Constant
    Bit rate : 160 Kbps
    Channel count : 2 channels
    Channel positions : Front: L R
    Sampling rate : 48.0 KHz
    Bit depth : 16 bits
    Compression mode : Lossy
    Stream size : 93.8 MiB (7%)
    Alignment : Aligned on interleaves
    Interleave, duration : 64 ms (1.60 video frames)
    Interleave, preload duration : 192 ms
    Title : VTS_03_1 T80 2_0ch 224Kbps DELAY 0ms_new

    Audio #2
    ID : 2
    Format : AC-3
    Format/Info : Audio Coding 3
    Mode extension : CM (complete main)
    Format settings, Endianness : Big
    Codec ID : 2000
    Duration : 1h 22mn
    Bit rate mode : Constant
    Bit rate : 160 Kbps
    Channel count : 2 channels
    Channel positions : Front: L R
    Sampling rate : 48.0 KHz
    Bit depth : 16 bits
    Compression mode : Lossy
    Stream size : 93.8 MiB (7%)
    Alignment : Aligned on interleaves
    Interleave, duration : 64 ms (1.60 video frames)
    Interleave, preload duration : 192 ms
    Title : VTS_03_1 T81 2_0ch 192Kbps DELAY 0ms_new


    Залил: _Bathory_
    Размер: 1.37 GB (1469368308 Bytes)

    Комендантский час / Curfew (1989) DVDRip | A торрент скачать бесплатно
    загрузка...
    Рейтинг →
     (голосов: 1, оценка 5/5, голосовать можно 1 раз )

    Другие торренты по теме:



      Комментарии (0):

      Информация

      Информация

        Посетители, находящиеся в группе Гости, не могут оставлять комментарии в данной новости.

        ↓ Меню



        ↓ Опрос

        А Вы добавили сайт в закладки?
        Да
        Не


        Top 10 за неделю (Фильмы)