.
Авторизация | Регистрация
» » Полиция Гавайев / Гавайи 5.0 / Hawaii Five-0 (2013) WEB-DL 720p от HDClub | LostFilm торрент скачать бесплатно




    Полиция Гавайев / Гавайи 5.0 / Hawaii Five-0 (2013) WEB-DL 720p от HDClub | LostFilm торрент скачать бесплатно

    Опубликовал: Админ | Дата: 27-02-2015, 11:09 | Просмотров: 412



    Информация о фильме
    Название: Полиция Гавайев / Гавайи 5.0
    Оригинальное название: Hawaii Five-0
    Год выхода: 2013
    Жанр: боевик, драма, криминал
    Режиссер: Брэд Тернер, Дуан Кларк, Мэтт Эрл Бисли, Стив Бойум, Крис Фишер, Ларри Тенг
    В ролях: Алекс О’Локлин, Скотт Каан, Дэниэл Дэ Ким, Грейс Пак, Терри О;Куинн, Тайлор Уайли, Teilor Grubbs, Маси Ока, Клер Вандер Бум, Дэннис Чун, Марк Дакаскос

    О фильме:
    Детектив Стив МакГарретт, бывший морской офицер с массой наград, а теперь полицейский, возвращается в Оаху расследовать убийство отца. Он остается на острове, после того, как губернатор штата Гавайи убедил его возглавить новую команду. Команда будет действовать по его правилам, при поддержке губернатора, без бюрократических проволочек, и с полным иммунитетом, все это - чтобы поймать самую крупную дичь в городе.

    К МакГаррету присоединяется детектив Дэнни Данно Уильямс, недавно переведенный из Нью-Джерси полицейский, который предпочел бы небоскребы пляжам, но готов бороться с преступностью, чтобы его 8-летняя дочь чувствовала себя на островах в безопасности; и Чин Хо Келли, бывший детектив полиции Гонолулу, которого ошибочно обвинили в коррупции, и который когда-то был протеже отца МакГаррета. Двоюродная сестра Чина, Коно, прекрасная и бесстрашная уроженка островов, недавно выпустилась из академии, и рвется доказать, что она достойна места в элите департамента. МакГаррет клянется завершить дело отца, а члены нового спецотряда Five-O, может, и грызутся друг с другом, но настроены уничтожить преступность в пятидесятом штате.
    Награды

    Золотой глобус, 2011 год
    Номинации (1):
    Лучший актёр второго плана мини-сериала или фильма на ТВ (Скотт Каан)

    Содержание

    01. Мы нужны друг другу / Aloha Ke Kahi I Ke Kahi
    02. Не в своей стихии / A;ale Ma;a Wau



    Страна: США
    Продолжительность: 2 x ~ 00:45:00
    Перевод: Профессиональный многоголосый закадровый, LostFilm|

    Файл
    Кодек: MPEG-4 AVC
    Качество: WEB-DL 720p
    Видео: ~ 4000 Кбит/с, 1280x720, 23.976 кадр/с
    Звук:
    Аудио#1: Russian: 48 kHz, AC3, 3/2 (L,C,R,l,r) LFE ch, ~384.00 kbps avg |Многоголосый закадровый, LostFilm|
    Аудио#2: English: 48 kHz, AC3, 3/2 (L,C,R,l,r) LFE ch, ~384.00 kbps avg
    Субтитры: English

    Дорожка №1 получена наложением выделенного голоса на центр декодированного AC3.
    MI

    Общее
    Уникальный идентификатор : 196806686063732664268607171422588845207 (0x940F96C85939CCDBAE689266C0DD3C97)
    Полное имя : Hawaii.Five-0.S04.720p.WEB-DL.Rus.Eng.HDCLUBHawaii.Five-0.S04E01.720p.WEB-DL.Rus.Eng.HDCLUB.mkv
    Формат : Matroska
    Версия формата : Version 4 / Version 2
    Размер файла : 1,46 Гбайт
    Продолжительность : 43 м.
    Общий поток : 4843 Кбит/сек
    Название фильма : Hawaii Five-0 Season 4 (2013) - Release for HDCLUB by vlaluk
    Дата кодирования : UTC 2013-09-30 11:19:44
    Программа кодирования : mkvmerge v6.3.0 (;You can;t stop me!;) built on Jun 28 2013 20:09:41
    Библиотека кодирования : libebml v1.3.0 libmatroska v1.4.0

    Видео
    Идентификатор : 1
    Формат : AVC
    Формат/Информация : Advanced Video Codec
    Профиль формата : High@L3.1
    Параметр CABAC формата : Нет
    Параметр ReFrames формата : 2 кадра
    Идентификатор кодека : V_MPEG4/ISO/AVC
    Продолжительность : 43 м.
    Битрейт : 3978 Кбит/сек
    Ширина : 1280 пикселей
    Высота : 720 пикселей
    Соотношение сторон : 16:9
    Режим частоты кадров : Постоянный
    Частота кадров : 23,976 кадра/сек
    Цветовое пространство : YUV
    Субдискретизация насыщенности : 4:2:0
    Битовая глубина : 8 бит
    Тип развёртки : Прогрессивная
    Бит/(Пиксели*Кадры) : 0.180
    Размер потока : 1,20 Гбайт (82%)
    Заголовок : Season 4, Episode 01: Aloha Ke Kahi I Ke Kahi / Мы нужны друг другу - Release for HDCLUB by vlaluk
    Язык : English
    Default : Да
    Forced : Нет
    Основные цвета : BT.709
    Характеристики трансфера : BT.709
    Коэффициенты матрицы : BT.709

    Аудио #1
    Идентификатор : 2
    Формат : AC-3
    Формат/Информация : Audio Coding 3
    Расширение режима : CM (complete main)
    Параметр Endianness формата : Big
    Идентификатор кодека : A_AC3
    Продолжительность : 43 м.
    Вид битрейта : Постоянный
    Битрейт : 384 Кбит/сек
    Каналы : 6 каналов
    Расположение каналов : Front: L C R, Side: L R, LFE
    Частота : 48,0 КГц
    Битовая глубина : 16 бит
    Метод сжатия : С потерями
    Размер потока : 119 Мбайт (8%)
    Заголовок : DD 5.1 @ 384 kbps @ LostFilm
    Язык : Russian
    Default : Да
    Forced : Нет

    Аудио #2
    Идентификатор : 3
    Формат : AC-3
    Формат/Информация : Audio Coding 3
    Расширение режима : CM (complete main)
    Параметр Endianness формата : Big
    Идентификатор кодека : A_AC3
    Продолжительность : 43 м.
    Вид битрейта : Постоянный
    Битрейт : 384 Кбит/сек
    Каналы : 6 каналов
    Расположение каналов : Front: L C R, Side: L R, LFE
    Частота : 48,0 КГц
    Битовая глубина : 16 бит
    Метод сжатия : С потерями
    Размер потока : 119 Мбайт (8%)
    Заголовок : DD 5.1 @ 384 kbps
    Язык : English
    Default : Нет
    Forced : Нет

    Текст
    Идентификатор : 4
    Формат : UTF-8
    Идентификатор кодека : S_TEXT/UTF8
    Идентификатор кодека/Информация : UTF-8 Plain Text
    Заголовок : English @ SRT
    Язык : English
    Default : Нет
    Forced : Нет

    Общее
    Уникальный идентификатор : 231408163476725381288503912758511429690 (0xAE1797550D70DE03B3255553A27C683A)
    Полное имя : Hawaii.Five-0.S04.720p.WEB-DL.Rus.Eng.HDCLUBHawaii.Five-0.S04E02.720p.WEB-DL.Rus.Eng.HDCLUB.mkv
    Формат : Matroska
    Версия формата : Version 4 / Version 2
    Размер файла : 1,51 Гбайт
    Продолжительность : 43 м.
    Общий поток : 4948 Кбит/сек
    Название фильма : Hawaii Five-0 Season 4 (2013) - Release for HDCLUB by vlaluk
    Дата кодирования : UTC 2013-10-07 12:22:44
    Программа кодирования : mkvmerge v6.3.0 (;You can;t stop me!;) built on Jun 28 2013 20:09:41
    Библиотека кодирования : libebml v1.3.0 libmatroska v1.4.0

    Видео
    Идентификатор : 1
    Формат : AVC
    Формат/Информация : Advanced Video Codec
    Профиль формата : High@L3.1
    Параметр CABAC формата : Нет
    Параметр ReFrames формата : 2 кадра
    Идентификатор кодека : V_MPEG4/ISO/AVC
    Продолжительность : 43 м.
    Битрейт : 4082 Кбит/сек
    Ширина : 1280 пикселей
    Высота : 720 пикселей
    Соотношение сторон : 16:9
    Режим частоты кадров : Постоянный
    Частота кадров : 23,976 кадра/сек
    Цветовое пространство : YUV
    Субдискретизация насыщенности : 4:2:0
    Битовая глубина : 8 бит
    Тип развёртки : Прогрессивная
    Бит/(Пиксели*Кадры) : 0.185
    Размер потока : 1,24 Гбайт (82%)
    Заголовок : Season 4, Episode 02: A;ale Ma;a Wau / Не в своей стихии - Release for HDCLUB by vlaluk
    Язык : English
    Default : Да
    Forced : Нет
    Основные цвета : BT.709
    Характеристики трансфера : BT.709
    Коэффициенты матрицы : BT.709

    Аудио #1
    Идентификатор : 2
    Формат : AC-3
    Формат/Информация : Audio Coding 3
    Расширение режима : CM (complete main)
    Параметр Endianness формата : Big
    Идентификатор кодека : A_AC3
    Продолжительность : 43 м.
    Вид битрейта : Постоянный
    Битрейт : 384 Кбит/сек
    Каналы : 6 каналов
    Расположение каналов : Front: L C R, Side: L R, LFE
    Частота : 48,0 КГц
    Битовая глубина : 16 бит
    Метод сжатия : С потерями
    Размер потока : 120 Мбайт (8%)
    Заголовок : DD 5.1 @ 384 kbps @ LostFilm
    Язык : Russian
    Default : Да
    Forced : Нет

    Аудио #2
    Идентификатор : 3
    Формат : AC-3
    Формат/Информация : Audio Coding 3
    Расширение режима : CM (complete main)
    Параметр Endianness формата : Big
    Идентификатор кодека : A_AC3
    Продолжительность : 43 м.
    Вид битрейта : Постоянный
    Битрейт : 384 Кбит/сек
    Каналы : 6 каналов
    Расположение каналов : Front: L C R, Side: L R, LFE
    Частота : 48,0 КГц
    Битовая глубина : 16 бит
    Метод сжатия : С потерями
    Размер потока : 120 Мбайт (8%)
    Заголовок : DD 5.1 @ 384 kbps
    Язык : English
    Default : Нет
    Forced : Нет

    Текст
    Идентификатор : 4
    Формат : UTF-8
    Идентификатор кодека : S_TEXT/UTF8
    Идентификатор кодека/Информация : UTF-8 Plain Text
    Заголовок : English @ SRT
    Язык : English
    Default : Нет
    Forced : Нет

    Скриншоты




    Релиз от: by vlaluk
    Размер: 2.97 GB (3191670402 Bytes)

    Полиция Гавайев / Гавайи 5.0 / Hawaii Five-0 (2013) WEB-DL 720p от HDClub | LostFilm торрент скачать бесплатно
    загрузка...
    Рейтинг →
     (голосов: 1, оценка 3/5, голосовать можно 1 раз )

    Другие торренты по теме:

  • Полиция Гавайев / Гавайи 5.0 / Hawaii Five-0 (2012) WEB-DLRip | LostFilm торрент скачать бесплатно
  • Полиция Гавайев / Гавайи 5.0 / Hawaii Five-0 (2013) WEB-DLRip от Youtracker | КПК скачать через торрент бесплатно
  • Полиция Гавайев / Гавайи 5.0 / Hawaii Five-0 (2013) WEB-DL 1080p | LostFilm торрент скачать бесплатно
  • Полиция Гавайев / Гавайи 5.0 / Hawaii Five-0 (2013-2014) WEB-DL 1080p | LostFilm скачать через торрент бесплатно
  • Полиция Гавайев / Гавайи 5.0 / Hawaii Five-0 (2013-2014) WEB-DL 720p от HDClub | LostFilm торрент скачать бесплатно
  • Полиция Гавайев / Гавайи 5.0 / Hawaii Five-0 (2013-2014) WEB-DLRip | LostFilm скачать через торрент бесплатно
  • Полиция Гавайев / Гавайи 5.0 / Hawaii Five-0 (2013-2014) WEB-DLRip | LostFilm торрент скачать бесплатно
  • Полиция Гавайев / Гавайи 5.0 / Hawaii Five-0 (2010-2014) WEB-DLRip | LostFilm скачать через торрент бесплатно


    • Комментарии (0):

      Информация

      Информация

        Посетители, находящиеся в группе Гости, не могут оставлять комментарии в данной новости.

        ↓ Меню



        ↓ Опрос

        А Вы добавили сайт в закладки?
        Да
        Не


        Top 10 за неделю (Фильмы)