.
Авторизация | Регистрация
» » Копы в юбках / The Heat (2013) BDRip 720p | UNRATED | D скачать через торрент бесплатно




    Копы в юбках / The Heat (2013) BDRip 720p | UNRATED | D скачать через торрент бесплатно

    Опубликовал: Админ | Дата: 27-02-2015, 11:09 | Просмотров: 291



    Информация о фильме
    Название: Копы в юбках
    Оригинальное название: The Heat
    Год выпуска: 2013
    Жанр: Боевик, комедия, криминал
    Выпущено: США, Twentieth Century Fox Film Corporation, Chernin Entertainment, Dune Entertainment, Dune Entertainment III
    Режиссер: Пол Файг
    В ролях: Сандра Баллок, Мелисса МакКарти, Кэйтлин Олсен, Таран Киллэм, Томас Ф. Уилсон, Майкл Рапапорт, Демиан Бишир, Тони Хейл, Билли Барр, Энди Бакли

    О фильме: Агенту ФБР и бостонскому полицейскому доверено ответственное задание: выйти на след и обезвредить опасного преступника. И это даже хорошо, что копы — женщины, ведь бандит-то — русский. А непредсказуемости русской смекалки можно противопоставить только столь же непредсказуемую женскую логику.



    Качество: BDRip (720p)
    Видео: MPEG-4 AVC, 4448 Кбит/с, 1280x534
    Аудио: Русский (AC3, 6 ch, 384 Кбит/с), английский (DTS, 6 ch, 1510 Кбит/с)
    Размер: 5.33 ГБ
    Продолжительность: 02:00:20
    Перевод: Дублированный Не кинотеатральный (любительский)

    Семпл
    MI
    Общее
    Уникальный идентификатор : 231020850723064661798072222644296595706 (0xADCCFF56D23A31819B5AC97456E1B8FA)
    Полное имя : D:The.Heat.2013.UNRATED.BluRay.720p.DTS.x264-CHD.mkv
    Формат : Matroska
    Версия формата : Version 2
    Размер файла : 5,33 Гбайт
    Продолжительность : 2 ч. 0 м.
    Общий поток : 6344 Кбит/сек
    Дата кодирования : UTC 2013-10-08 17:40:56
    Программа кодирования : mkvmerge v6.3.0 (;You can;t stop me!;) built on Jun 28 2013 20:09:41
    Библиотека кодирования : libebml v1.3.0 libmatroska v1.4.0

    Видео
    Идентификатор : 1
    Формат : AVC
    Формат/Информация : Advanced Video Codec
    Профиль формата : High@L4.1
    Параметр CABAC формата : Да
    Параметр ReFrames формата : 10 кадров
    Идентификатор кодека : V_MPEG4/ISO/AVC
    Продолжительность : 2 ч. 0 м.
    Битрейт : 4448 Кбит/сек
    Ширина : 1280 пикселей
    Высота : 534 пикселя
    Соотношение сторон : 2,40:1
    Режим частоты кадров : Постоянный
    Частота кадров : 23,976 кадра/сек
    Цветовое пространство : YUV
    Субдискретизация насыщенности : 4:2:0
    Битовая глубина : 8 бит
    Тип развёртки : Прогрессивная
    Бит/(Пиксели*Кадры) : 0.271
    Размер потока : 3,63 Гбайт (68%)
    Заголовок : The.Heat.2013.UNRATED.BluRay.720p.DTS.x264-CHD
    Библиотека кодирования : x264 core 135 r2345 f0c1c53
    Настройки программы : cabac=1 / ref=10 / deblock=1:-3:-3 / analyse=0x3:0x113 / me=umh / subme=10 / psy=1 / psy_rd=1.00:0.05 / mixed_ref=1 / me_range=32 / chroma_me=1 / trellis=2 / 8x8dct=1 / cqm=0 / deadzone=21,11 / fast_pskip=0 / chroma_qp_offset=-2 / threads=8 / lookahead_threads=1 / sliced_threads=0 / nr=0 / decimate=1 / interlaced=0 / bluray_compat=0 / constrained_intra=0 / bframes=4 / b_pyramid=2 / b_adapt=2 / b_bias=0 / direct=3 / weightb=1 / open_gop=0 / weightp=2 / keyint=250 / keyint_min=23 / scenecut=40 / intra_refresh=0 / rc=2pass / mbtree=0 / bitrate=4448 / ratetol=1.0 / qcomp=0.70 / qpmin=0 / qpmax=69 / qpstep=4 / cplxblur=20.0 / qblur=0.5 / ip_ratio=1.40 / pb_ratio=1.30 / aq=2:0.90
    Язык : English
    Default : Нет
    Forced : Нет

    Аудио #1
    Идентификатор : 2
    Формат : AC-3
    Формат/Информация : Audio Coding 3
    Расширение режима : CM (complete main)
    Параметр Endianness формата : Big
    Идентификатор кодека : A_AC3
    Продолжительность : 2 ч. 0 м.
    Вид битрейта : Постоянный
    Битрейт : 384 Кбит/сек
    Каналы : 6 каналов
    Расположение каналов : Front: L C R, Side: L R, LFE
    Частота : 48,0 КГц
    Битовая глубина : 16 бит
    Метод сжатия : С потерями
    Размер потока : 331 Мбайт (6%)
    Язык : Russian
    Default : Да
    Forced : Нет

    Аудио #2
    Идентификатор : 3
    Формат : DTS
    Формат/Информация : Digital Theater Systems
    Режим : 16
    Параметр Endianness формата : Big
    Идентификатор кодека : A_DTS
    Продолжительность : 2 ч. 0 м.
    Вид битрейта : Постоянный
    Битрейт : 1509 Кбит/сек
    Каналы : 6 каналов
    Расположение каналов : Front: L C R, Side: L R, LFE
    Частота : 48,0 КГц
    Битовая глубина : 24 бит
    Метод сжатия : С потерями
    Размер потока : 1,27 Гбайт (24%)
    Заголовок : dts 5.1 1536kbps
    Язык : English
    Default : Нет
    Forced : Нет

    Меню
    00:00:00.000 : en:00:00:00.000
    00:01:46.022 : en:00:01:46.022
    00:05:28.453 : en:00:05:28.453
    00:07:15.977 : en:00:07:15.977
    00:11:26.435 : en:00:11:26.435
    00:14:17.898 : en:00:14:17.898
    00:16:38.956 : en:00:16:38.956
    00:19:50.939 : en:00:19:50.939
    00:23:23.610 : en:00:23:23.610
    00:26:18.118 : en:00:26:18.118
    00:30:11.976 : en:00:30:11.976
    00:34:07.837 : en:00:34:07.837
    00:36:27.101 : en:00:36:27.101
    00:39:12.975 : en:00:39:12.975
    00:44:44.139 : en:00:44:44.139
    00:47:59.584 : en:00:47:59.584
    00:52:59.801 : en:00:52:59.801
    00:56:13.786 : en:00:56:13.786
    01:00:57.778 : en:01:00:57.778
    01:03:25.801 : en:01:03:25.801
    01:05:47.151 : en:01:05:47.151
    01:09:34.795 : en:01:09:34.795
    01:17:00.574 : en:01:17:00.574
    01:23:38.638 : en:01:23:38.638
    01:26:51.622 : en:01:26:51.622
    01:28:37.019 : en:01:28:37.019
    01:31:07.420 : en:01:31:07.420
    01:34:08.559 : en:01:34:08.559
    01:37:03.233 : en:01:37:03.233
    01:39:41.224 : en:01:39:41.224
    01:44:20.670 : en:01:44:20.670
    01:45:41.501 : en:01:45:41.501
    01:48:54.569 : en:01:48:54.569
    01:51:15.710 : en:01:51:15.710
    01:54:02.710 : en:01:54:02.710
    01:55:24.876 : en:01:55:24.876

    Скриншоты



    Размер: 5.33 GB (5725354025 Bytes)

    Копы в юбках / The Heat (2013) BDRip 720p | UNRATED | D скачать через торрент бесплатно
    загрузка...
    Рейтинг →
     (голосов: 1, оценка 5/5, голосовать можно 1 раз )

    Другие торренты по теме:

  • Голливудские копы / Hollywood Homicide (2003) BDRip от NovaLan торрент скачать бесплатно
  • Копия верна / Certified Copy / Copie conforme (2010) BDRip-AVC от Rulya74 торрент скачать бесплатно
  • Библиотекарь 2: Возвращение в Копи Царя Соломона / The Librarian: Return to King Solomon (2006) BDRemux 1080p от HDTracker торрент скачать бесплатно
  • Библиотекарь: В поисках копья судьбы / The Librarian: Quest for the Spear (2004) BDRemux 1080i от HDTracker торрент скачать бесплатно
  • Копы в глубоком запасе / The Other Guys (2010) HDRip от Scarabey | Театральная версия торрент скачать бесплатно
  • Копы-новобранцы / Rookie Blue (2012) WEB-DLRip | P торрент скачать бесплатно
  • Копы в юбках / The Heat (2013) TS торрент скачать бесплатно
  • Копы в юбках / The Heat (2013) HDTVRip | Звук с TS торрент скачать бесплатно


    • Комментарии (0):

      Информация

      Информация

        Посетители, находящиеся в группе Гости, не могут оставлять комментарии в данной новости.

        ↓ Меню



        ↓ Опрос

        А Вы добавили сайт в закладки?
        Да
        Не


        Top 10 за неделю (Фильмы)