.
Авторизация | Регистрация
Хочешь лучшие торренты? Добавь свой email!
Добавить
» » Ничего не бойся / Nothing Left to Fear (2013) WEB-DLRip от BitTracker скачать через торрент бесплатно




    Ничего не бойся / Nothing Left to Fear (2013) WEB-DLRip от BitTracker скачать через торрент бесплатно

    Опубликовал: Админ | Дата: 27-02-2015, 11:09 | Просмотров: 426



    Информация о фильме
    Название: Ничего не бойся
    Оригинальное название: Nothing Left to Fear
    Год выхода: 2013
    Жанр: ужасы
    Режиссер: Энтони Леонарди III / Anthony Leonardi III
    В ролях: Клэнси Браун, Энн Хеч, Дженнифер Стоун, Итан Пек, Ребека Брандес, Джеймс Таппер, Хезер Руп, Мишель ДеВито, Дж.Д. Эвермор, Уэйн Пер

    О фильме:
    В поисках новой работы и лучшей жизни добропорядочная семья переезжает в маленький безмятежный городок Сталл в штате Канзас. Кто бы знал, что согласно древней легенде именно в Сталле находится одно из семи врат ада, через которые время от времени на землю выбирается сам дьявол…




    Страна: США
    Продолжительность: 01:40:23
    Перевод: Любительское (двухголосое) DeadSno den904

    Файл
    Кодек: XviD
    Качество: WEB-DLRip (Исх. WEB-DL 720p)
    Видео: 640x272 (2.35:1), 23.976 fps, XviD build 50 ~901 kbps avg, 0.22 bit/pixel
    Звук: 48 kHz, MPEG Layer 3, 2 ch, ~128.00 kbps avg
    Субтитры: нет

    Семпл

    MediaInfo

    Общее
    Полное имя : S:ФильмыНичего не бойся. 2013. WEB-DLRip (AleksSin).avi
    Формат : AVI
    Формат/Информация : Audio Video Interleave
    Размер файла : 746 Мбайт
    Продолжительность : 1 ч. 40 м.
    Общий поток : 1038 Кбит/сек
    Программа кодирования : VirtualDubMod 1.5.10.3 | www.virtualdub-fr.org || (build 2550/release)
    Библиотека кодирования : VirtualDubMod build 2550/release

    Видео
    Идентификатор : 0
    Формат : MPEG-4 Visual
    Профиль формата : Advanced Simple@L5
    Параметр BVOP формата : 2
    Параметр QPel формата : Нет
    Параметр GMC формата : Без точки перехода
    Параметр матрицы формата : Default (H.263)
    Идентификатор кодека : XVID
    Идентификатор кодека/Подсказка : XviD
    Продолжительность : 1 ч. 40 м.
    Битрейт : 901 Кбит/сек
    Ширина : 640 пикс.
    Высота : 272 пикс.
    Соотношение сторон : 2,35:1
    Частота кадров : 23,976 кадр/сек
    Цветовое пространство : YUV
    Подвыборка цветности : 4:2:0
    Битовая глубина : 8 бит
    Тип развёртки : Прогрессивная
    Метод сжатия : С потерями
    Бит/(Пиксели*Кадры) : 0.216
    Размер потока : 647 Мбайт (87%)
    Библиотека кодирования : XviD 1.2.1 (UTC 2008-12-04)

    Аудио
    Идентификатор : 1
    Формат : MPEG Audio
    Версия формата : Version 1
    Профиль формата : Layer 3
    Идентификатор кодека : 55
    Идентификатор кодека/Подсказка : MP3
    Продолжительность : 1 ч. 40 м.
    Вид битрейта : Постоянный
    Битрейт : 128 Кбит/сек
    Каналы : 2 канала
    Частота : 48,0 КГц
    Метод сжатия : С потерями
    Размер потока : 91,9 Мбайт (12%)
    Выравнивание : Соединение по промежуткам
    Продолжительность промежутка : 42 мс. (1,00 видеокадр)
    Время предзагрузки промежутка : 504 ms
    Библиотека кодирования : LAME3.99r
    Залил: AleksSin
    Размер: 745.57 MB (781791232 Bytes)


    Ничего не бойся / Nothing Left to Fear (2013) WEB-DLRip от BitTracker скачать через торрент бесплатно
    загрузка...
    Рейтинг →
     (голосов: 1, оценка 5/5, голосовать можно 1 раз )

    Другие торренты по теме:

  • Ничего не вижу, ничего не слышу / See No Evil, Hear No Evil (1989) BDRip 1080p
  • Ничего не вижу, ничего не слышу / See No Evil, Hear No Evil (1989) BDRip 720p от New-Team скачать через торрент бесплатно
  • Ничего не вижу, ничего не слышу / See No Evil, Hear No Evil (1989) BDRip-AVC от New-Team скачать через торрент бесплатно
  • Ничего не вижу, ничего не слышу / See No Evil, Hear No Evil (1989) BDRip от New-Team скачать через торрент бесплатно
  • Ничего не вижу, ничего не слышу / See No Evil, Hear No Evil (1989) BDRip 1080p
  • Эта девушка не может иначе (С этой девушкой ничего не поделаешь) / The girl can't help it / 1956 / ПО / DVDRip
  • Вы еще ничего не видели / Vous navez encore rien vu (2012) HDRip
  • Валерий Золотухин. Я никогда ничего не просил (2013) SATRip


    • Комментарии (0):

      Информация

      Информация

        Посетители, находящиеся в группе Гости, не могут оставлять комментарии в данной новости.

        ↓ Меню



        ↓ Опрос

        А Вы добавили сайт в закладки?
        Да
        Не


        Top 10 за месяц (Фильмы)