.
Авторизация | Регистрация
» » Сорванцы / Les gamins (2013) HDRip от BitTracker | L1 торрент скачать бесплатно




    Сорванцы / Les gamins (2013) HDRip от BitTracker | L1 торрент скачать бесплатно

    Опубликовал: Админ | Дата: 27-02-2015, 11:09 | Просмотров: 259



    Информация о фильме
    Название: Сорванцы
    Оригинальное название: Les gamins
    Год выхода: 2013
    Жанр: комедия
    Режиссер: Энтони Марсиано / Anthony Marciano
    В ролях: Ален Шаба, Макс Бублиль, Сандрин Киберлэн, Мелани Бернье, Ари Элмале, Элиза Сенауи, Элбан Ленуар, Франсуа Дюнойе, Николя Бриансон, Мелюсин Маянс

    О фильме:
    Жильберу уже пятьдесят лет, из которых тридцать он женат на Сюзанне, немного занудной дамочке, помешанной на здоровом питании. Они готовятся к встрече с Томасом, женихом своей дочери Лолы. Но Жильбера совершенно не радует предстоящая свадьба. Ему скучно, он разочарован в себе и в своей жизни. Жильбер уверен, что в его нынешнем унылом существовании виновата... Сюзанна! Ведь если бы он не женился, то жизнь его была бы совсем другой - яркой и насыщенной. Жильбер уговаривает Томаса отказаться от свадьбы с Лолой и не повторять его ошибок. И вот, два великовозрастных дитяти, забыв о своих любимых женщинах, пускаются во все тяжкие...




    Страна: Франция
    Студия: Legende Films, PeopleForCinema Productions, Gaumont
    Продолжительность: 01:37:28
    Перевод: Любительское (одноголосое) А.Бочаров

    Файл
    Кодек: XviD
    Качество: HDRip (Исх. BDRip 1080p)
    Видео: 720x304 (2.37:1), 24.000 fps, XviD build 50 ~1741 kbps avg, 0.33 bit/pixel
    Звук: 48 kHz, AC3 Dolby Digital, 2/0 (L,R) ch, ~384.00 kbps avg
    Субтитры: нет

    Семпл

    MediaInfo

    Общее
    Полное имя : S:ФильмыСорванцы. 2013. HDRip. 1.45 (AleksSin).avi
    Формат : AVI
    Формат/Информация : Audio Video Interleave
    Размер файла : 1,45 Гбайт
    Продолжительность : 1 ч. 37 м.
    Общий поток : 2135 Кбит/сек
    Программа кодирования : VirtualDubMod 1.5.10.3 | www.virtualdub-fr.org || (build 2550/release)
    Библиотека кодирования : VirtualDubMod build 2550/release

    Видео
    Идентификатор : 0
    Формат : MPEG-4 Visual
    Профиль формата : Advanced Simple@L5
    Параметр BVOP формата : 2
    Параметр QPel формата : Нет
    Параметр GMC формата : Без точки перехода
    Параметр матрицы формата : Default (H.263)
    Идентификатор кодека : XVID
    Идентификатор кодека/Подсказка : XviD
    Продолжительность : 1 ч. 37 м.
    Битрейт : 1741 Кбит/сек
    Ширина : 720 пикс.
    Высота : 304 пикс.
    Соотношение сторон : 2,35:1
    Частота кадров : 24,000 кадр/сек
    Цветовое пространство : YUV
    Подвыборка цветности : 4:2:0
    Битовая глубина : 8 бит
    Тип развёртки : Прогрессивная
    Метод сжатия : С потерями
    Бит/(Пиксели*Кадры) : 0.332
    Размер потока : 1,19 Гбайт (82%)
    Библиотека кодирования : XviD 1.2.1 (UTC 2008-12-04)

    Аудио
    Идентификатор : 1
    Формат : AC-3
    Формат/Информация : Audio Coding 3
    Расширение режима : CM (complete main)
    Идентификатор кодека : 2000
    Продолжительность : 1 ч. 37 м.
    Вид битрейта : Постоянный
    Битрейт : 384 Кбит/сек
    Каналы : 2 канала
    Расположение каналов : Front: L R
    Частота : 48,0 КГц
    Битовая глубина : 16 бит
    Метод сжатия : С потерями
    Размер потока : 268 Мбайт (18%)
    Выравнивание : Разделение по промежуткам
    Продолжительность промежутка : 42 мс. (1,00 видеокадр)
    Время предзагрузки промежутка : 500 ms

    Скриншоты


    Релиз от:
    Залил: AleksSin
    Размер: 1.45 GB (1560555520 Bytes)

    Сорванцы / Les gamins (2013) HDRip от BitTracker | L1 торрент скачать бесплатно
    загрузка...
    Рейтинг →
     (голосов: 1, оценка 4/5, голосовать можно 1 раз )

    Другие торренты по теме:



      Комментарии (0):

      Информация

      Информация

        Посетители, находящиеся в группе Гости, не могут оставлять комментарии в данной новости.

        ↓ Меню



        ↓ Опрос

        А Вы добавили сайт в закладки?
        Да
        Не


        Top 10 за неделю (Фильмы)