.
Авторизация | Регистрация
» » Все копы - ублюдки / A.C.A.B.: All Cops Are Bastards (2012) HDRip от BitTracker | Elrom торрент скачать бесплатно




    Все копы - ублюдки / A.C.A.B.: All Cops Are Bastards (2012) HDRip от BitTracker | Elrom торрент скачать бесплатно

    Опубликовал: Админ | Дата: 27-02-2015, 11:09 | Просмотров: 309



    Информация о фильме
    Название: Все копы - ублюдки
    Оригинальное название: A.C.A.B.: All Cops Are Bastards
    Год выхода: 2012
    Жанр: Боевик, драма, криминал
    Режиссер: Стефано Соллима / Stefano Sollima
    В ролях: Пьерфранческо Фавино, Филиппо Нигро, Марко Джаллини, Андреа Сарторетти, Роберта Спаньюоло, Риккардо Анджелини, Алессандра Антинори, Стефания Бого, Себастиано Колла, Ник Николози, Франческо Прандо, Алессандро Проколи

    О фильме:
    Адриано молодой новобранец полицейского подразделения по борьбе с массовыми беспорядками в Риме. Его напарниками и учителями станут трое опытных полицейских Негро, Мазинга и Кобра, известные своей жестокостью и нетерпимостью по отношению к нарушителям закона. Вскоре Адриано начинает понимать, что в их привычном методе работы что-то не так.




    Страна: Франция, Италия
    Студия: Babe Film, Cattleya, Rai Cinema
    Продолжительность: 01:49:37
    Перевод: Профессиональный (двухголосый) студия Elrom

    Файл
    Кодек: XviD
    Качество: HDRip (Исх. BDRip 720p)
    Видео: 640x272 (2.35:1), 24.000 fps, XviD build 50 ~814 kbps avg, 0.19 bit/pixel
    Звук: 48 kHz, MPEG Layer 3, 2 ch, ~128.00 kbps avg
    Субтитры: нет

    Семпл

    MediaInfo

    Общее
    Полное имя : S:ФильмыВсе копы - ублюдки. 2012. HDRip. (AleksSin).avi
    Формат : AVI
    Формат/Информация : Audio Video Interleave
    Размер файла : 746 Мбайт
    Продолжительность : 1 ч. 49 м.
    Общий поток : 951 Кбит/сек
    Программа кодирования : VirtualDubMod 1.5.10.3 | www.virtualdub-fr.org || (build 2550/release)
    Библиотека кодирования : VirtualDubMod build 2550/release

    Видео
    Идентификатор : 0
    Формат : MPEG-4 Visual
    Профиль формата : Advanced Simple@L5
    Параметр BVOP формата : 2
    Параметр QPel формата : Нет
    Параметр GMC формата : Без точки перехода
    Параметр матрицы формата : Default (H.263)
    Идентификатор кодека : XVID
    Идентификатор кодека/Подсказка : XviD
    Продолжительность : 1 ч. 49 м.
    Битрейт : 814 Кбит/сек
    Ширина : 640 пикс.
    Высота : 272 пикс.
    Соотношение сторон : 2,35:1
    Частота кадров : 24,000 кадр/сек
    Цветовое пространство : YUV
    Подвыборка цветности : 4:2:0
    Битовая глубина : 8 бит
    Тип развёртки : Прогрессивная
    Метод сжатия : С потерями
    Бит/(Пиксели*Кадры) : 0.195
    Размер потока : 638 Мбайт (86%)
    Библиотека кодирования : XviD 1.2.1 (UTC 2008-12-04)

    Аудио
    Идентификатор : 1
    Формат : MPEG Audio
    Версия формата : Version 1
    Профиль формата : Layer 3
    Идентификатор кодека : 55
    Идентификатор кодека/Подсказка : MP3
    Продолжительность : 1 ч. 49 м.
    Вид битрейта : Постоянный
    Битрейт : 128 Кбит/сек
    Каналы : 2 канала
    Частота : 48,0 КГц
    Метод сжатия : С потерями
    Размер потока : 100 Мбайт (13%)
    Выравнивание : Соединение по промежуткам
    Продолжительность промежутка : 42 мс. (1,00 видеокадр)
    Время предзагрузки промежутка : 504 ms
    Библиотека кодирования : LAME3.99r
    Залил: AleksSin
    Размер: 745.63 MB (781844480 Bytes)


    Все копы - ублюдки / A.C.A.B.: All Cops Are Bastards (2012) HDRip от BitTracker | Elrom торрент скачать бесплатно
    загрузка...
    Рейтинг →
     (голосов: 1, оценка 3/5, голосовать можно 1 раз )

    Другие торренты по теме:

  • Все копы - ублюдки / A.C.A.B.: All Cops Are Bastards (2012) HDRip | Elrom торрент скачать бесплатно


    • Комментарии (0):

      Информация

      Информация

        Посетители, находящиеся в группе Гости, не могут оставлять комментарии в данной новости.

        ↓ Меню



        ↓ Опрос

        А Вы добавили сайт в закладки?
        Да
        Не


        Top 10 за неделю (Фильмы)