.
Авторизация | Регистрация
Хочешь лучшие торренты? Добавь свой email!
Добавить
» » Я плюю на ваши могилы 2 / I Spit On Your Grave 2 (2013) HDRip от BitTracker | UNRATED | Чистый звук торрент скачать бесплатно




    Я плюю на ваши могилы 2 / I Spit On Your Grave 2 (2013) HDRip от BitTracker | UNRATED | Чистый звук торрент скачать бесплатно

    Опубликовал: Админ | Дата: 27-02-2015, 11:09 | Просмотров: 271



    Информация о фильме
    Название: Я плюю на ваши могилы 2
    Оригинальное название: I Spit On Your Grave 2
    Год выхода: 2013
    Жанр: ужасы, триллер, криминал
    Режиссер: Стивен Р. Монро / Stiven R. Monro
    В ролях: Джемма Даллендер, Джо Эбсолом, Явор Бахаров, Александр Алексеев, Мэри Стокли, Майкл Диксон, Валентин Пелка, Питер Сильверлиф, Георг Златарев

    О фильме:
    Красавица Кэти только что переехала в Нью-Йорк, чтобы сделать карьеру модели. Но девичьи мечты о роскошной жизни разбиваются: ее насилуют, пытают, а вскоре похищают и увозят в непонятном направлении. Кэти оказывается одна в чужой стране, где ее почти что похоронят заживо. Чудом избежав смерти, девушка решает жестоко отомстить обидчикам…




    Страна: США
    Студия: Cinetel Films
    Продолжительность: 01:46:11
    Перевод: Дублированное Чистый звук

    Файл
    Кодек: XviD
    Качество: HDRip (Исх. BDRip 720p)
    Видео: 688x288 (2.39:1), 23.976 fps, XviD build 50 ~844 kbps avg, 0.18 bit/pixel
    Звук: 48 kHz, MPEG Layer 3, 2 ch, ~128.00 kbps avg
    Субтитры: нет

    Семпл

    MediaInfo

    Общее
    Полное имя : S:ФильмыЯ плюю на ваши могилы 2. 2013. HDRip (AleksSin).avi
    Формат : AVI
    Формат/Информация : Audio Video Interleave
    Размер файла : 745 Мбайт
    Продолжительность : 1 ч. 46 м.
    Общий поток : 981 Кбит/сек
    Программа кодирования : VirtualDubMod 1.5.10.3 | www.virtualdub-fr.org || (build 2550/release)
    Библиотека кодирования : VirtualDubMod build 2550/release

    Видео
    Идентификатор : 0
    Формат : MPEG-4 Visual
    Профиль формата : Advanced Simple@L5
    Параметр BVOP формата : 2
    Параметр QPel формата : Нет
    Параметр GMC формата : Без точки перехода
    Параметр матрицы формата : Default (H.263)
    Идентификатор кодека : XVID
    Идентификатор кодека/Подсказка : XviD
    Продолжительность : 1 ч. 46 м.
    Битрейт : 844 Кбит/сек
    Ширина : 688 пикс.
    Высота : 288 пикс.
    Соотношение сторон : 2,40:1
    Частота кадров : 23,976 кадр/сек
    Цветовое пространство : YUV
    Подвыборка цветности : 4:2:0
    Битовая глубина : 8 бит
    Тип развёртки : Прогрессивная
    Метод сжатия : С потерями
    Бит/(Пиксели*Кадры) : 0.178
    Размер потока : 641 Мбайт (86%)
    Библиотека кодирования : XviD 1.2.1 (UTC 2008-12-04)

    Аудио
    Идентификатор : 1
    Формат : MPEG Audio
    Версия формата : Version 1
    Профиль формата : Layer 3
    Идентификатор кодека : 55
    Идентификатор кодека/Подсказка : MP3
    Продолжительность : 1 ч. 46 м.
    Вид битрейта : Постоянный
    Битрейт : 128 Кбит/сек
    Каналы : 2 канала
    Частота : 48,0 КГц
    Метод сжатия : С потерями
    Размер потока : 97,2 Мбайт (13%)
    Выравнивание : Соединение по промежуткам
    Продолжительность промежутка : 42 мс. (1,00 видеокадр)
    Время предзагрузки промежутка : 504 ms
    Библиотека кодирования : LAME3.99r
    Залил: AleksSin
    Размер: 745.16 MB (781352960 Bytes)


    Я плюю на ваши могилы 2 / I Spit On Your Grave 2 (2013) HDRip от BitTracker | UNRATED | Чистый звук торрент скачать бесплатно
    загрузка...
    Рейтинг →
     (голосов: 1, оценка 5/5, голосовать можно 1 раз )

    Другие торренты по теме:

  • День женщины / Я плюю на твою могилу / I Spit On Your Grave / Day of the Woman (1978) BDRip 1080p от NovaLan
  • Я плюю на ваши могилы / I Spit on Your Grave (2010) HDRip от Scarabey | Расширенная версия
  • Я плюю на ваши могилы 2 / I Spit on Your Grave 2 (2013) HDRip| UNRATED | L1
  • Я плюю на ваши могилы 2 / I Spit On Your Grave 2 (2013) HDRip | UNRATED | L1
  • Я плюю на ваши могилы 2 / I Spit On Your Grave 2 (2013) BDRip-AVC 1080p | UNRATED | L1 | Звук с TS
  • Я плюю на ваши могилы 2 / I Spit On Your Grave 2 (2013) BDRip-AVC 720p | UNRATED | L1 | Звук с TS
  • Я плюю на ваши могилы 2 / I Spit On Your Grave 2 (2013) BDRip-AVC | UNRATED | L1 | Звук с TS
  • Я плюю на ваши могилы 2 / I Spit On Your Grave 2 (2013) BDRip-AVC от HELLYWOOD | UNRATED | L1


    • Комментарии (0):

      Информация

      Информация

        Посетители, находящиеся в группе Гости, не могут оставлять комментарии в данной новости.

        ↓ Меню



        ↓ Опрос

        А Вы добавили сайт в закладки?
        Да
        Не


        Top 10 за месяц (Фильмы)