.
Авторизация | Регистрация
» » Врут не только убийцы / Mrdaren ljuger inte ensam (2013) HDRip от BitTracker торрент скачать бесплатно




    Врут не только убийцы / Mrdaren ljuger inte ensam (2013) HDRip от BitTracker торрент скачать бесплатно

    Опубликовал: Админ | Дата: 27-02-2015, 11:09 | Просмотров: 331



    Информация о фильме
    Название: Врут не только убийцы
    Оригинальное название: M?rdaren ljuger inte ensam
    Год выхода: 2013
    Жанр: криминал
    Режиссер: Биргер Ларсен / Birger Larsen
    В ролях: Тува Новотны, Лайнус Уолгрен, Густаф Хаммарстен, Сюзанна Дильбер, Фанни Рисберг

    О фильме:
    На фоне магически прекрасного города Бергслагена происходят страшные события. Пак и Эйнар Бюре в лучших традициях детективного жанра демонстрируют преимущества дедуктивного метода и находят убийцу, которого на преступление толкнула страсть.




    Страна: Швеция
    Студия: Pampas Produktion
    Продолжительность: 01:28:59
    Перевод: Любительский (одноголосное) Райдо

    Файл
    Кодек: XviD
    Качество: HDRip (Исх. BDRip 720p)
    Видео: 640x272 (2.35:1), 24.000 fps, XviD build 50 ~1032 kbps avg, 0.25 bit/pixel
    Звук: 48 kHz, MPEG Layer 3, 2 ch, ~128.00 kbps avg
    Субтитры: нет

    Семпл

    MediaInfo

    Общее
    Полное имя : S:ФильмыВрут не только убийцы. 2013. HDRip (AleksSin).avi
    Формат : AVI
    Формат/Информация : Audio Video Interleave
    Размер файла : 744 Мбайт
    Продолжительность : 1 ч. 28 м.
    Общий поток : 1169 Кбит/сек
    Программа кодирования : VirtualDubMod 1.5.10.3 | www.virtualdub-fr.org || (build 2550/release)
    Библиотека кодирования : VirtualDubMod build 2550/release

    Видео
    Идентификатор : 0
    Формат : MPEG-4 Visual
    Профиль формата : Advanced Simple@L5
    Параметр BVOP формата : 2
    Параметр QPel формата : Нет
    Параметр GMC формата : Без точки перехода
    Параметр матрицы формата : Default (H.263)
    Идентификатор кодека : XVID
    Идентификатор кодека/Подсказка : XviD
    Продолжительность : 1 ч. 28 м.
    Битрейт : 1032 Кбит/сек
    Ширина : 640 пикс.
    Высота : 272 пикс.
    Соотношение сторон : 2,35:1
    Частота кадров : 24,000 кадр/сек
    Цветовое пространство : YUV
    Подвыборка цветности : 4:2:0
    Битовая глубина : 8 бит
    Тип развёртки : Прогрессивная
    Метод сжатия : С потерями
    Бит/(Пиксели*Кадры) : 0.247
    Размер потока : 657 Мбайт (88%)
    Библиотека кодирования : XviD 1.2.1 (UTC 2008-12-04)

    Аудио
    Идентификатор : 1
    Формат : MPEG Audio
    Версия формата : Version 1
    Профиль формата : Layer 3
    Идентификатор кодека : 55
    Идентификатор кодека/Подсказка : MP3
    Продолжительность : 1 ч. 28 м.
    Вид битрейта : Постоянный
    Битрейт : 128 Кбит/сек
    Каналы : 2 канала
    Частота : 48,0 КГц
    Метод сжатия : С потерями
    Размер потока : 81,5 Мбайт (11%)
    Выравнивание : Соединение по промежуткам
    Продолжительность промежутка : 42 мс. (1,00 видеокадр)
    Время предзагрузки промежутка : 504 ms
    Библиотека кодирования : LAME3.99r
    Залил: AleksSin
    Размер: 744.43 MB (780591104 Bytes)


    Врут не только убийцы / Mrdaren ljuger inte ensam (2013) HDRip от BitTracker торрент скачать бесплатно
    загрузка...
    Рейтинг →
     (голосов: 1, оценка 3/5, голосовать можно 1 раз )

    Другие торренты по теме:



      Комментарии (0):

      Информация

      Информация

        Посетители, находящиеся в группе Гости, не могут оставлять комментарии в данной новости.

        ↓ Меню



        ↓ Опрос

        А Вы добавили сайт в закладки?
        Да
        Не


        Top 10 за неделю (Фильмы)