.
Авторизация | Регистрация
Хочешь лучшие торренты? Добавь свой email!
Добавить
» » Среди друзей / Among Friends (2012) WEB-DLRip от BitTracker торрент скачать бесплатно




    Среди друзей / Among Friends (2012) WEB-DLRip от BitTracker торрент скачать бесплатно

    Опубликовал: Админ | Дата: 27-02-2015, 11:09 | Просмотров: 318



    Информация о фильме
    Название: Среди друзей
    Оригинальное название: Among Friends
    Год выхода: 2012
    Жанр: триллер, ужасы, комедия
    Режиссер: Даниэль Харрис / Danielle Harris
    В ролях: Кристофер Бакус, Дженнифер Бланк, Ай Бауэн, Дэна Даури, Брианна Дэвис, Камала Джонс, Алисса Лобит, Крис Мейер

    О фильме:
    В компании на вечеринке один из друзей захватил в заложники всю свою компанию, чтобы открыть всем тайны которые они скрывают друг от друга.




    Страна: США
    Продолжительность: 01:20:13
    Перевод: Любительское (двухголосое) DeadSno den904

    Файл
    Кодек: XviD
    Качество: WEB-DLRip (Исх. WEB-DL.1080p.)
    Видео: 656x368 (1.78:1), 23.976 fps, XviD build 50 ~1159 kbps avg, 0.20 bit/pixel
    Звук: 48 kHz, MPEG Layer 3, 2 ch, ~128.00 kbps avg
    Субтитры: нет

    Семпл

    MediaInfo

    Общее
    Полное имя : S:ФильмыСреди друзей. 2012. WEB-DLRip (AleksSin).avi
    Формат : AVI
    Формат/Информация : Audio Video Interleave
    Размер файла : 744 Мбайт
    Продолжительность : 1 ч. 20 м.
    Общий поток : 1296 Кбит/сек
    Программа кодирования : VirtualDubMod 1.5.10.3 | www.virtualdub-fr.org || (build 2550/release)
    Библиотека кодирования : VirtualDubMod build 2550/release

    Видео
    Идентификатор : 0
    Формат : MPEG-4 Visual
    Профиль формата : Advanced Simple@L5
    Параметр BVOP формата : 2
    Параметр QPel формата : Нет
    Параметр GMC формата : Без точки перехода
    Параметр матрицы формата : Default (H.263)
    Идентификатор кодека : XVID
    Идентификатор кодека/Подсказка : XviD
    Продолжительность : 1 ч. 20 м.
    Битрейт : 1159 Кбит/сек
    Ширина : 656 пикс.
    Высота : 368 пикс.
    Соотношение сторон : 16:9
    Частота кадров : 23,976 кадр/сек
    Цветовое пространство : YUV
    Подвыборка цветности : 4:2:0
    Битовая глубина : 8 бит
    Тип развёртки : Прогрессивная
    Метод сжатия : С потерями
    Бит/(Пиксели*Кадры) : 0.200
    Размер потока : 665 Мбайт (89%)
    Библиотека кодирования : XviD 1.2.1 (UTC 2008-12-04)

    Аудио
    Идентификатор : 1
    Формат : MPEG Audio
    Версия формата : Version 1
    Профиль формата : Layer 3
    Идентификатор кодека : 55
    Идентификатор кодека/Подсказка : MP3
    Продолжительность : 1 ч. 20 м.
    Вид битрейта : Постоянный
    Битрейт : 128 Кбит/сек
    Каналы : 2 канала
    Частота : 48,0 КГц
    Метод сжатия : С потерями
    Размер потока : 73,4 Мбайт (10%)
    Выравнивание : Соединение по промежуткам
    Продолжительность промежутка : 42 мс. (1,00 видеокадр)
    Время предзагрузки промежутка : 504 ms
    Библиотека кодирования : LAME3.99r
    Залил: AleksSin
    Размер: 743.60 MB (779724800 Bytes)


    Среди друзей / Among Friends (2012) WEB-DLRip от BitTracker торрент скачать бесплатно
    загрузка...
    Рейтинг →
     (голосов: 1, оценка 3/5, голосовать можно 1 раз )

    Другие торренты по теме:

  • Среди друзей / Among Friends (2012) WEB-DLRip | L2 скачать через торрент бесплатно


    • Комментарии (0):

      Информация

      Информация

        Посетители, находящиеся в группе Гости, не могут оставлять комментарии в данной новости.

        ↓ Меню



        ↓ Опрос

        А Вы добавили сайт в закладки?
        Да
        Не


        Top 10 за месяц (Фильмы)