.
Авторизация | Регистрация
» » Штурм Белого дома / White House Down (2013) BDRip 720p от MULTIBITS | Лицензия скачать через торрент бесплатно




    Штурм Белого дома / White House Down (2013) BDRip 720p от MULTIBITS | Лицензия скачать через торрент бесплатно

    Опубликовал: Админ | Дата: 27-02-2015, 11:09 | Просмотров: 254



    Информация о фильме
    Название: Штурм Белого дома
    Оригинальное название: White House Down
    Год выхода: 2013
    Жанр: Боевик, драма
    Режиссер: Роланд Эммерих
    В ролях: Ченнинг Татум, Джои Кинг, Джеймс Вудс, Джейсон Кларк, Джейми Фокс, Мэгги Джилленхол, Рашель Лефевр, Лэнс Реддик, Джимми Симпсон, Лэнс Реддик, Ричард Дженкинс

    О фильме:
    Если вы не прошли интервью для того, чтобы попасть в охрану к президенту, не отчаивайтесь, у вас есть шанс на экскурсию по Белому Дому. Чтобы улучшить свои шаткие отношения с дочерью, Кэйл выпрашивает 2 билета для этой экскурсии. Кто же мог предвидеть, что в окружении президента завелась крыса. Здесь Кэйл и сумел проявить свое мужество в спасении президента Соера и маленькой Эмили. В фильме есть и комические моменты: три президента за один фильм, гонки на президентском лимузине вокруг фонтана по лужайке Белого дома, действия самого президента иногда заставляют улыбнутся, как всегда, не обошлось без русских и конечно вы найдете ответ на вопрос, есть ли в Белом Доме секретный туннель. И в завершении для того, чтобы узнать как девочка спасла Белый Дом от разрушений, вам надо посмотреть этот фильм.



    Выпущено: США / Centropolis Entertainment, Iron Horse Entertainment, Mythology Entertainment
    Продолжительность: 02:11:32
    Озвучивание: Дублированное лицензия

    Файл
    Формат: MKV (x264)
    Качество: BDRip 720p
    Видео: 5178 Кбит/с, 1280x534
    Звук: AC3, 640 Кбит/с (6 ch)
    Субтитры: Русские
    Дополнительно: Сохранены оригинальные чаптеры

    Семпл



    MI
    Format : Matroska
    Format version : Version 4 / Version 2
    File size : 5.45 GiB
    Duration : 2h 11mn
    Overall bit rate : 5 936 Kbps
    Encoded date : UTC 2013-10-10 17:59:13
    Writing application : mkvmerge v6.4.1 (;Omega Point;) built on Sep 16 2013 22:05:10
    Writing library : libebml v1.3.0 libmatroska v1.4.1

    Video
    ID : 1
    Format : AVC
    Format/Info : Advanced Video Codec
    Format profile : High@L4.1
    Format settings, CABAC : Yes
    Format settings, ReFrames : 5 frames
    Codec ID : V_MPEG4/ISO/AVC
    Duration : 2h 11mn
    Bit rate : 5 178 Kbps
    Width : 1 280 pixels
    Height : 534 pixels
    Display aspect ratio : 2.40:1
    Frame rate mode : Constant
    Frame rate : 23.976 fps
    Color space : YUV
    Chroma subsampling : 4:2:0
    Bit depth : 8 bits
    Scan type : Progressive
    Bits/(Pixel*Frame) : 0.316
    Stream size : 4.76 GiB (87%)
    Language : English
    Default : Yes
    Forced : No

    Audio
    ID : 2
    Format : AC-3
    Format/Info : Audio Coding 3
    Mode extension : CM (complete main)
    Format settings, Endianness : Big
    Codec ID : A_AC3
    Duration : 2h 11mn
    Bit rate mode : Constant
    Bit rate : 640 Kbps
    Channel count : 6 channels
    Channel positions : Front: L C R, Side: L R, LFE
    Sampling rate : 48.0 KHz
    Bit depth : 16 bits
    Compression mode : Lossy
    Stream size : 602 MiB (11%)
    Language : Russian
    Default : Yes
    Forced : No

    Text
    ID : 3
    Format : UTF-8
    Codec ID : S_TEXT/UTF8
    Codec ID/Info : UTF-8 Plain Text
    Language : Russian
    Default : No
    Forced : No

    Menu
    00:00:00.000 : en:00:00:00.000
    00:06:39.774 : en:00:06:39.774
    00:15:18.835 : en:00:15:18.835
    00:21:37.838 : en:00:21:37.838
    00:30:10.809 : en:00:30:10.809
    00:37:47.348 : en:00:37:47.348
    00:45:51.207 : en:00:45:51.207
    00:51:12.278 : en:00:51:12.278
    00:59:55.133 : en:00:59:55.133
    01:07:08.942 : en:01:07:08.942
    01:14:42.853 : en:01:14:42.853
    01:24:13.590 : en:01:24:13.590
    01:29:53.805 : en:01:29:53.805
    01:37:27.717 : en:01:37:27.717
    01:44:36.562 : en:01:44:36.562
    01:54:17.851 : en:01:54:17.851
    Скриншоты



    Релиз от:
    Размер: 5.45 GB (5856884296 Bytes)

    Штурм Белого дома / White House Down (2013) BDRip 720p от MULTIBITS | Лицензия скачать через торрент бесплатно
    загрузка...
    Рейтинг →
     (голосов: 1, оценка 4/5, голосовать можно 1 раз )

    Другие торренты по теме:

  • Штурм Белого дома / White House Down (2013) HD 1080p | Трейлер торрент скачать бесплатно
  • Штурм Белого дома / White House Down (2013) TS *PROPER* торрент скачать бесплатно
  • Штурм Белого дома / White House Down (2013) WEBRip от INTERCINEMA | Звук с TS торрент скачать бесплатно
  • Штурм Белого дома / White House Down (2013) WEBRip | Звук с TS скачать через торрент бесплатно
  • Штурм Белого дома / White House Down (2013) WEB-DL 720p | Звук с TS скачать через торрент бесплатно
  • Штурм Белого дома / White House Down (2013) DVD9 | Лицензия торрент скачать бесплатно
  • Штурм Белого дома / White House Down (2013) DVDRip от Scarabey | Лицензия скачать через торрент бесплатно
  • Штурм Белого дома / White House Down (2013) BDRip 1080p | Лицензия скачать через торрент бесплатно


    • Комментарии (0):

      Информация

      Информация

        Посетители, находящиеся в группе Гости, не могут оставлять комментарии в данной новости.

        ↓ Меню



        ↓ Опрос

        А Вы добавили сайт в закладки?
        Да
        Не


        Top 10 за неделю (Фильмы)