.
Авторизация | Регистрация
» » Человек-мозг / The Brain Man (2013) HDRip от BitTracker скачать через торрент бесплатно




    Человек-мозг / The Brain Man (2013) HDRip от BitTracker скачать через торрент бесплатно

    Опубликовал: Админ | Дата: 27-02-2015, 11:09 | Просмотров: 298



    Информация о фильме
    Название: Человек-мозг
    Оригинальное название: The Brain Man
    Год выхода: 2013
    Жанр: детектив, триллер
    Режиссер: Томоюки Такимото / Tomoyuki Takimoto
    В ролях: Йосуке Егучи, Шота Сомея, Тома Икута, Рэндзи Исибаси, Исао Натсуяги, Фуми Никайдо, Кен Мицуйси, Ясуко Мацуюки, Рина Охта, Юкиёси Одзава

    О фильме:
    В маленьком городе в Японии происходит серия взрывов, казалось бы, не связанных между собой. Ичиро Сузуки, так же известного как Человек-мозг, подозревают в причастности к организации этих взрывов. Расследованием занимается Мидорикава. Человек-мозг — таинственный мужчина с выдающейся памятью, высоким интеллектом и идеальным телом, но, кажется, он не испытывает обычных человеческих эмоций. Нейрохирург Марико Вашия, имеющая свою психическую травму, верит, что люди добры по своей природе, и пытается спасать преступников. Она находит интересным Человека-Мозга и пытается докопаться до правды. А между тем, детектив Чая выслеживает Ичиро.




    Страна: Япония
    Продолжительность: 02:05:09
    Перевод: Любительское (многоголосое) DeadSno den904

    Файл
    Кодек: XviD
    Качество: HDRip (Исх. BDRip 720p)
    Видео: 704x384 (1.83:1), 23.976 fps, XviD build 50 ~1466 kbps avg, 0.23 bit/pixel
    Звук: 48 kHz, AC3 Dolby Digital, 2/0 (L,R) ch, ~192.00 kbps avg
    Субтитры: нет

    Семпл

    MediaInfo

    Общее
    Полное имя : S:ФильмыЧеловек-мозг. 2013. HDRip. 1.45 (AleksSin).avi
    Формат : AVI
    Формат/Информация : Audio Video Interleave
    Размер файла : 1,46 Гбайт
    Продолжительность : 2 ч. 5 м.
    Общий поток : 1668 Кбит/сек
    Программа кодирования : VirtualDubMod 1.5.10.3 | www.virtualdub-fr.org || (build 2550/release)
    Библиотека кодирования : VirtualDubMod build 2550/release

    Видео
    Идентификатор : 0
    Формат : MPEG-4 Visual
    Профиль формата : Advanced Simple@L5
    Параметр BVOP формата : 2
    Параметр QPel формата : Нет
    Параметр GMC формата : Без точки перехода
    Параметр матрицы формата : Default (H.263)
    Идентификатор кодека : XVID
    Идентификатор кодека/Подсказка : XviD
    Продолжительность : 2 ч. 5 м.
    Битрейт : 1466 Кбит/сек
    Ширина : 704 пикс.
    Высота : 384 пикс.
    Соотношение сторон : 16:9
    Частота кадров : 23,976 кадр/сек
    Цветовое пространство : YUV
    Подвыборка цветности : 4:2:0
    Битовая глубина : 8 бит
    Тип развёртки : Прогрессивная
    Метод сжатия : С потерями
    Бит/(Пиксели*Кадры) : 0.226
    Размер потока : 1,28 Гбайт (88%)
    Библиотека кодирования : XviD 1.2.1 (UTC 2008-12-04)

    Аудио
    Идентификатор : 1
    Формат : AC-3
    Формат/Информация : Audio Coding 3
    Расширение режима : CM (complete main)
    Идентификатор кодека : 2000
    Продолжительность : 2 ч. 5 м.
    Вид битрейта : Постоянный
    Битрейт : 192 Кбит/сек
    Каналы : 2 канала
    Расположение каналов : Front: L R
    Частота : 48,0 КГц
    Битовая глубина : 16 бит
    Метод сжатия : С потерями
    Размер потока : 172 Мбайт (12%)
    Выравнивание : Разделение по промежуткам
    Продолжительность промежутка : 42 мс. (1,00 видеокадр)
    Время предзагрузки промежутка : 500 ms

    Скриншоты


    Релиз от:
    Залил: AleksSin
    Размер: 1.46 GB (1565347840 Bytes)

    Человек-мозг / The Brain Man (2013) HDRip от BitTracker скачать через торрент бесплатно
    загрузка...
    Рейтинг →
     (голосов: 1, оценка 5/5, голосовать можно 1 раз )

    Другие торренты по теме:

  • Человек-мозг / The Brain Man (2013) HDRip от RG Orient Extreme | L2 торрент скачать бесплатно
  • Человек с кричащим мозгом / Man with the Screaming Brain (2005) DVDRip | P, P2 торрент скачать бесплатно
  • Человек с кричащим мозгом / Man with the Screaming Brain (2005) DVDRip | P скачать через торрент бесплатно
  • Человек против мозга (2016) WEB-DLRip от Generalfilm скачать торрент бесплатно


    • Комментарии (0):

      Информация

      Информация

        Посетители, находящиеся в группе Гости, не могут оставлять комментарии в данной новости.

        ↓ Меню



        ↓ Опрос

        А Вы добавили сайт в закладки?
        Да
        Не


        Top 10 за неделю (Фильмы)