.
Авторизация | Регистрация
Хочешь лучшие торренты? Добавь свой email!
Добавить
» » Штурм Белого дома / White House Down (2013) BDRip 1080p | Лицензия скачать через торрент бесплатно




    Штурм Белого дома / White House Down (2013) BDRip 1080p | Лицензия скачать через торрент бесплатно

    Опубликовал: Админ | Дата: 27-02-2015, 11:09 | Просмотров: 267



    Информация о фильме
    Название: Штурм Белого дома
    Оригинальное название: White House Down
    Год выпуска: 2013
    Жанр: Боевик, драма
    Выпущено: США, Centropolis Entertainment, Iron Horse Entertainment, Mythology Entertainment
    Режиссер: Роланд Эммерих
    В ролях: Ченнинг Татум, Джои Кинг, Джеймс Вудс, Джейсон Кларк, Джейми Фокс, Мэгги Джилленхол, Рашель Лефевр, Лэнс Реддик, Джимми Симпсон, Лэнс Реддик, Ричард Дженкинс

    О фильме: Если вы не прошли интервью для того, чтобы попасть в охрану к президенту, не отчаивайтесь, у вас есть шанс на экскурсию по Белому Дому. Чтобы улучшить свои шаткие отношения с дочерью, Кэйл выпрашивает 2 билета для этой экскурсии. Кто же мог предвидеть, что в окружении президента завелась крыса. Здесь Кэйл и сумел проявить свое мужество в спасении президента Соера и маленькой Эмили. В фильме есть и комические моменты: три президента за один фильм, гонки на президентском лимузине вокруг фонтана по лужайке Белого дома, действия самого президента иногда заставляют улыбнутся, как всегда, не обошлось без русских и конечно вы найдете ответ на вопрос, есть ли в Белом Доме секретный туннель. И в завершении для того, чтобы узнать как девочка спасла Белый Дом от разрушений, вам надо посмотреть этот фильм.



    Файл
    Качество: BDRip (1080p)
    Видео: MPEG-4 AVC, 11.8 Мбит/с, 1920x802
    Аудио: Русский, украинский (AC3, 6 ch, 640 Кбит/с), английский (DTS, 6 ch, 1510 Кбит/с)
    Размер: 13.4 ГБ
    Продолжительность: 02:11:32
    Перевод: Дублированный лицензия
    Субтитры: Русские
    MI
    Format : Matroska
    Format version : Version 4 / Version 2
    File size : 13.4 GiB
    Duration : 2h 11mn
    Overall bit rate : 14.6 Mbps
    Movie name : CMEGRoup
    Encoded date : UTC 2013-10-10 11:54:52
    Writing application : mkvmerge v6.4.1 (;Omega Point;) built on Sep 16 2013 22:05:10
    Writing library : libebml v1.3.0 libmatroska v1.4.1

    Video
    ID : 1
    Format : AVC
    Format/Info : Advanced Video Codec
    Format profile : High@L4.1
    Format settings, CABAC : Yes
    Format settings, ReFrames : 4 frames
    Codec ID : V_MPEG4/ISO/AVC
    Duration : 2h 11mn
    Bit rate : 11.8 Mbps
    Width : 1 920 pixels
    Height : 802 pixels
    Display aspect ratio : 2.40:1
    Frame rate mode : Constant
    Frame rate : 23.976 fps
    Color space : YUV
    Chroma subsampling : 4:2:0
    Bit depth : 8 bits
    Scan type : Progressive
    Bits/(Pixel*Frame) : 0.320
    Stream size : 10.6 GiB (79%)
    Writing library : x264 core 133 r2334 a3ac64b
    Encoding settings : cabac=1 / ref=4 / deblock=1:-3:-3 / analyse=0x3:0x113 / me=umh / subme=11 / psy=1 / psy_rd=1.00:0.00 / mixed_ref=1 / me_range=32 / chroma_me=1 / trellis=2 / 8x8dct=1 / cqm=0 / deadzone=21,11 / fast_pskip=1 / chroma_qp_offset=-2 / threads=12 / lookahead_threads=1 / sliced_threads=0 / nr=0 / decimate=1 / interlaced=0 / bluray_compat=0 / constrained_intra=0 / bframes=5 / b_pyramid=2 / b_adapt=2 / b_bias=0 / direct=2 / weightb=1 / open_gop=0 / weightp=2 / keyint=240 / keyint_min=23 / scenecut=40 / intra_refresh=0 / rc_lookahead=40 / rc=2pass / mbtree=1 / bitrate=11800 / ratetol=1.0 / qcomp=0.60 / qpmin=0 / qpmax=69 / qpstep=4 / cplxblur=20.0 / qblur=0.5 / vbv_maxrate=62500 / vbv_bufsize=78125 / nal_hrd=none / ip_ratio=1.40 / aq=1:1.00
    Language : English
    Default : Yes
    Forced : No

    Audio #1
    ID : 2
    Format : AC-3
    Format/Info : Audio Coding 3
    Mode extension : CM (complete main)
    Format settings, Endianness : Big
    Codec ID : A_AC3
    Duration : 2h 11mn
    Bit rate mode : Constant
    Bit rate : 640 Kbps
    Channel(s) : 6 channels
    Channel positions : Front: L C R, Side: L R, LFE
    Sampling rate : 48.0 KHz
    Bit depth : 16 bits
    Compression mode : Lossy
    Stream size : 602 MiB (4%)
    Language : Russian
    Default : Yes
    Forced : No

    Audio #2
    ID : 3
    Format : AC-3
    Format/Info : Audio Coding 3
    Mode extension : CM (complete main)
    Format settings, Endianness : Big
    Codec ID : A_AC3
    Duration : 2h 11mn
    Bit rate mode : Constant
    Bit rate : 640 Kbps
    Channel(s) : 6 channels
    Channel positions : Front: L C R, Side: L R, LFE
    Sampling rate : 48.0 KHz
    Bit depth : 16 bits
    Compression mode : Lossy
    Stream size : 602 MiB (4%)
    Language : Ukrainian
    Default : No
    Forced : No

    Audio #3
    ID : 4
    Format : DTS
    Format/Info : Digital Theater Systems
    Mode : 16
    Format settings, Endianness : Big
    Codec ID : A_DTS
    Duration : 2h 11mn
    Bit rate mode : Constant
    Bit rate : 1 509 Kbps
    Channel(s) : 6 channels
    Channel positions : Front: L C R, Side: L R, LFE
    Sampling rate : 48.0 KHz
    Bit depth : 16 bits
    Compression mode : Lossy
    Stream size : 1.39 GiB (10%)
    Language : English
    Default : No
    Forced : No

    Text
    ID : 5
    Format : UTF-8
    Codec ID : S_TEXT/UTF8
    Codec ID/Info : UTF-8 Plain Text
    Language : Russian
    Default : Yes
    Forced : No

    Menu
    00:00:00.000 : en:00:00:00.000
    00:06:39.774 : en:00:06:39.774
    00:15:18.835 : en:00:15:18.835
    00:21:37.838 : en:00:21:37.838
    00:30:10.809 : en:00:30:10.809
    00:37:47.348 : en:00:37:47.348
    00:45:51.207 : en:00:45:51.207
    00:51:12.278 : en:00:51:12.278
    00:59:55.133 : en:00:59:55.133
    01:07:08.942 : en:01:07:08.942
    01:14:42.853 : en:01:14:42.853
    01:24:13.590 : en:01:24:13.590
    01:29:53.805 : en:01:29:53.805
    01:37:27.717 : en:01:37:27.717
    01:44:36.562 : en:01:44:36.562
    01:54:17.851 : en:01:54:17.851

    Скриншоты




    Релиз от:
    Размер: 13.40 GB (14393159074 Bytes)

    Штурм Белого дома / White House Down (2013) BDRip 1080p | Лицензия скачать через торрент бесплатно
    загрузка...
    Рейтинг →
     (голосов: 1, оценка 5/5, голосовать можно 1 раз )

    Другие торренты по теме:

  • Штурм Белого дома / White House Down (2013) HD 1080p | Трейлер
  • Штурм Белого дома / White House Down (2013) TS *PROPER*
  • Штурм Белого дома / White House Down (2013) WEBRip от INTERCINEMA | Звук с TS
  • Штурм Белого дома / White House Down (2013) WEBRip | Звук с TS скачать через торрент бесплатно
  • Штурм Белого дома / White House Down (2013) WEB-DL 720p | Звук с TS скачать через торрент бесплатно
  • Штурм Белого дома / White House Down (2013) DVD9 | Лицензия
  • Штурм Белого дома / White House Down (2013) DVDRip от Scarabey | Лицензия скачать через торрент бесплатно
  • Штурм Белого дома / White House Down (2013) BDRip 720p от MULTIBITS | Лицензия скачать через торрент бесплатно


    • Комментарии (0):

      Информация

      Информация

        Посетители, находящиеся в группе Гости, не могут оставлять комментарии в данной новости.

        ↓ Меню



        ↓ Опрос

        А Вы добавили сайт в закладки?
        Да
        Не


        Top 10 за месяц (Фильмы)