.
Авторизация | Регистрация
Хочешь лучшие торренты? Добавь свой email!
Добавить
» » Иллюзия обмана / Now You See Me (2013) BDRemux 1080p | Extended Cut | A скачать через торрент бесплатно




    Иллюзия обмана / Now You See Me (2013) BDRemux 1080p | Extended Cut | A скачать через торрент бесплатно

    Опубликовал: Админ | Дата: 27-02-2015, 11:09 | Просмотров: 422



    Информация о фильме

    Название: Иллюзия обмана
    Оригинальное название: Now You See Me
    Год выпуска: 2013
    Жанр: Триллер, криминал
    Выпущено: Франция, США, Summit Entertainment, K/O Paper Products, SOIXAN7E QUIN5E
    Режиссер: Луи Летерье
    В ролях: Джесси Айзенберг, Дэйв Франко, Морган Фримен, Марк Руффало, Айла Фишер, Мелани Лоран, Вуди Харрельсон, Майкл Кейн, Майкл Келли, Коммон, Дэвид Уоршофски, Джессика Линдси, Каитриона Бэлфи

    О фильме: Команда лучших иллюзионистов мира проворачивает дерзкие ограбления прямо во время своих шоу, играя в кошки-мышки с агентами ФБР.




    Файл

    Качество: Blu-Ray Remux (1080p)
    Видео: MPEG-4 AVC, 20546 Кбит/с, 1920x1080, 23.976 кадр/с
    Аудио: Русский (AC3, 6 ch, 640 Кбит/с), (DTS, 6 ch, 1536 Кбит/с), английский (DTS-HD MA, 8 ch, 5182 Кбит/с)
    Размер: 26.8 ГБ
    Продолжительность: 02:04:48
    Перевод: Авторский
    Субтитры: Русские, английские, испанские

    Семпл


    Видеоряд - PublicHD
    Русские субтитры - notabenoid
    Расширенная версия длиннее театральной ~ на 9 мин.
    --------------------------------------------------------------------------------------
    Аудио1:Russian: 48 kHz, AC3, 6ch, 640.00 kbps |Сербин|
    Аудио2:Russian: 48 kHz, DTS, 6ch 1536.00 kbps |Сербин|
    Аудио3:Russian: 48 kHz, AC3, 6ch, 640.00 kbps |Володарский|
    Аудио4:Russian: 48 kHz, DTS, 6ch 1536.00 kbps |Володарский|


    Инфо-файл

    Общее
    Уникальный идентификатор : 252467449640855272526226873292798958968 (0xBDEF764DCCE754C8B054002E3AC61D78)
    Полное имя : C:ЗагрузкиNow.You.See.Me.2013.1080p.BluRay.REMUX.DTS-HD.MA.7.1-PublicHD.mkv
    Формат : Matroska
    Версия формата : Version 2
    Размер файла : 26,8 Гбайт
    Продолжительность : 2 ч. 4 м.
    Режим общего битрейта : Переменный
    Общий поток : 30,8 Мбит/сек
    Дата кодирования : UTC 2013-10-10 09:20:03
    Программа кодирования : mkvmerge v5.6.0 (;Kenya Kane;) built on May 27 2012 16:44:04
    Библиотека кодирования : libebml v1.2.3 libmatroska v1.3.0

    Видео
    Идентификатор : 1
    Формат : AVC
    Формат/Информация : Advanced Video Codec
    Профиль формата : High@L4.1
    Параметр CABAC формата : Да
    Параметр ReFrames формата : 4 кадра
    Идентификатор кодека : V_MPEG4/ISO/AVC
    Продолжительность : 2 ч. 4 м.
    Вид битрейта : Переменный
    Максимальный битрейт : 37,0 Мбит/сек
    Ширина : 1920 пикселей
    Высота : 1080 пикселей
    Соотношение сторон : 16:9
    Режим частоты кадров : Постоянный
    Частота кадров : 23,976 кадра/сек
    Цветовое пространство : YUV
    Субдискретизация насыщенности : 4:2:0
    Битовая глубина : 8 бит
    Тип развёртки : Прогрессивная
    Заголовок : Video PublicHD
    Язык : English
    Default : Да
    Forced : Нет

    Аудио #1
    Идентификатор : 2
    Формат : AC-3
    Формат/Информация : Audio Coding 3
    Расширение режима : CM (complete main)
    Параметр Endianness формата : Big
    Идентификатор кодека : A_AC3
    Продолжительность : 2 ч. 4 м.
    Вид битрейта : Постоянный
    Битрейт : 640 Кбит/сек
    Каналы : 6 каналов
    Расположение каналов : Front: L C R, Side: L R, LFE
    Частота : 48,0 КГц
    Битовая глубина : 16 бит
    Метод сжатия : С потерями
    Размер потока : 571 Мбайт (2%)
    Заголовок : Авторский (Ю.Сербин)
    Язык : Russian
    Default : Да
    Forced : Да

    Аудио #2
    Идентификатор : 3
    Формат : DTS
    Формат/Информация : Digital Theater Systems
    Режим : 16
    Параметр Endianness формата : Big
    Идентификатор кодека : A_DTS
    Продолжительность : 2 ч. 4 м.
    Вид битрейта : Постоянный
    Битрейт : 1509 Кбит/сек
    Каналы : 6 каналов
    Расположение каналов : Front: L C R, Side: L R, LFE
    Частота : 48,0 КГц
    Битовая глубина : 24 бит
    Метод сжатия : С потерями
    Размер потока : 1,32 Гбайт (5%)
    Заголовок : Авторский (Ю.Сербин)
    Язык : Russian
    Default : Нет
    Forced : Нет

    Аудио #3
    Идентификатор : 4
    Формат : AC-3
    Формат/Информация : Audio Coding 3
    Расширение режима : CM (complete main)
    Параметр Endianness формата : Big
    Идентификатор кодека : A_AC3
    Продолжительность : 2 ч. 4 м.
    Вид битрейта : Постоянный
    Битрейт : 640 Кбит/сек
    Каналы : 6 каналов
    Расположение каналов : Front: L C R, Side: L R, LFE
    Частота : 48,0 КГц
    Битовая глубина : 16 бит
    Метод сжатия : С потерями
    Размер потока : 571 Мбайт (2%)
    Заголовок : Авторский (Л.Володарский)
    Язык : Russian
    Default : Нет
    Forced : Нет

    Аудио #4
    Идентификатор : 5
    Формат : DTS
    Формат/Информация : Digital Theater Systems
    Режим : 16
    Параметр Endianness формата : Big
    Идентификатор кодека : A_DTS
    Продолжительность : 2 ч. 4 м.
    Вид битрейта : Постоянный
    Битрейт : 1509 Кбит/сек
    Каналы : 6 каналов
    Расположение каналов : Front: L C R, Side: L R, LFE
    Частота : 48,0 КГц
    Битовая глубина : 24 бит
    Метод сжатия : С потерями
    Размер потока : 1,32 Гбайт (5%)
    Заголовок : Авторский (Л.Володарский)
    Язык : Russian
    Default : Нет
    Forced : Нет

    Аудио #5
    Идентификатор : 6
    Формат : DTS
    Формат/Информация : Digital Theater Systems
    Профиль формата : MA / Core
    Режим : 16
    Параметр Endianness формата : Big
    Идентификатор кодека : A_DTS
    Продолжительность : 2 ч. 4 м.
    Вид битрейта : Переменный
    Битрейт : Неизвестно / 1509 Кбит/сек
    Каналы : 8 каналов / 6 каналов
    Расположение каналов : Front: L C R, Side: L R, Back: L R, LFE / Front: L C R, Side: L R, LFE
    Частота : 48,0 КГц
    Битовая глубина : 24 бит
    Метод сжатия : Без потерь / Lossy
    Заголовок : Audio PublicHD
    Язык : English
    Default : Нет
    Forced : Нет

    Текст #1
    Идентификатор : 7
    Формат : UTF-8
    Идентификатор кодека : S_TEXT/UTF8
    Идентификатор кодека/Информация : UTF-8 Plain Text
    Язык : Russian
    Default : Нет
    Forced : Нет

    Текст #2
    Идентификатор : 8
    Формат : UTF-8
    Идентификатор кодека : S_TEXT/UTF8
    Идентификатор кодека/Информация : UTF-8 Plain Text
    Заголовок : Sub English PublicHD
    Язык : English
    Default : Нет
    Forced : Нет

    Меню
    00:00:00.000 : en:00:00:00.000
    00:08:26.548 : en:00:08:26.548
    00:14:41.923 : en:00:14:41.923
    00:21:25.868 : en:00:21:25.868
    00:32:02.003 : en:00:32:02.003
    00:39:29.158 : en:00:39:29.158
    00:47:07.199 : en:00:47:07.199
    00:56:43.441 : en:00:56:43.441
    01:04:35.371 : en:01:04:35.371
    01:10:23.135 : en:01:10:23.135
    01:20:04.549 : en:01:20:04.549
    01:29:01.002 : en:01:29:01.002
    01:35:22.883 : en:01:35:22.883
    01:44:06.281 : en:01:44:06.281
    01:45:47.507 : en:01:45:47.507
    01:54:24.607 : en:01:54:24.607



    Скриншоты





    Залил: ollan
    Размер: 26.81 GB (28789609878 Bytes)

    Иллюзия обмана / Now You See Me (2013) BDRemux 1080p | Extended Cut | A скачать через торрент бесплатно
    загрузка...
    Рейтинг →
     (голосов: 1, оценка 5/5, голосовать можно 1 раз )

    Другие торренты по теме:

  • Иллюзия обмана / Now You See Me (2012) HDRip | D | Трейлер
  • Иллюзия обмана / Now You See Me (2013) HDRip | Звук с TS
  • Иллюзия обмана / Now You See Me (2013) BDRip 1080p | iTunes
  • Иллюзия обмана / Now You See Me (2013) Blu-Ray Remux 1080p | iTunes
  • Иллюзия обмана / Now You See Me (2013) HDRip | iTunes
  • Иллюзия обмана / Now You See Me (2013) BDRip 720p от INTERCINEMA | iTunes
  • Иллюзия обмана / Now You See Me (2013) BDRip-AVC от leonardo 59 Scarabey | iTunes Russia
  • Иллюзия обмана / Now You See Me (2013) HDRip от -=HD-NET=- | КПК | iTunes Russia


    • Комментарии (0):

      Информация

      Информация

        Посетители, находящиеся в группе Гости, не могут оставлять комментарии в данной новости.

        ↓ Меню



        ↓ Опрос

        А Вы добавили сайт в закладки?
        Да
        Не


        Top 10 за месяц (Фильмы)