.
Авторизация | Регистрация
» » Подставное тело / Body Double (1984) BDRip от MediaClub | P скачать через торрент бесплатно




    Подставное тело / Body Double (1984) BDRip от MediaClub | P скачать через торрент бесплатно

    Опубликовал: Админ | Дата: 27-02-2015, 11:09 | Просмотров: 247



    Информация о фильме
    Название: Подставное тело
    Оригинальное название: Body Double
    Год выхода: 1984
    Жанр: Триллер, драма, криминал, детектив
    Режиссер: Брайан Де Пальма
    В ролях: Крейг Уоссон, Мелани Гриффит, Грегг Генри, Дебора Шелтон, Гай Бойд, Дэннис Франц, Дэвид Хэскелл, Ребекка Стэнли, Эл Израэл, Дуглас Уорхит

    О фильме:
    Актер Джейк снимается на вторых ролях в фильмах ужасов про вампиров. Однажды он возвращается домой после съемок фильма и обнаруживает свою подружку с другим мужчиной. Джейк вынужден искать себе новое жилье. Его знакомый Фрэнк, тоже актер, предлагает Джейку пожить у него, пока он будет в отъезде, а заодно и присмотреть за домом. Чтобы Джейк не скучал в одиночестве, Фрэнк рассказывает ему о маленьком домашнем развлечении. В здании напротив живет любимая соседка Фрэнка, сексапильная красавица Глория, которая каждый вечер раздевается у незанавешенного и хорошо освещенного окна. Увидев бесплатный стриптиз своими глазами, Джейк мечтает познакомиться лично с прекрасной Глорией. Знакомство происходит при необычных обстоятельствах, но в один из вечеров Джейк вместо полюбившегося шоу видит через окно, как Глорию убивают… Но это еще не все. Кто-то нанимает актрису, чтобы она заменила Глорию и продолжила импровизированное шоу за стеклом.



    MPAA: R - Лицам до 17 лет обязательно присутствие взрослого

    Страна: США / Columbia Pictures Corporation, Delphi II
    Продолжительность: 01:54:11
    Перевод: Профессиональный (многоголосый, закадровый)

    Файл
    Кодек: XviD
    Качество: BDRip
    Видео: XviD, 720x384 (1.875), 1951 kbps, 23,976 fps, 0,294 bpp
    Аудио №1: AC3 / 5.1 / 48 kHz / 384 kbps / 16 bit (RUS)
    Аудио №2: AC3 / 5.1 / 48 kHz / 384 kbps / 16 bit (ENG)


    Семпл

    О релизе
    За исходник большое спасибо Kaspr

    Media Info

    Format : AVI
    Format/Info : Audio Video Interleave
    Format profile : OpenDML
    File size : 2.18 GiB
    Duration : 1h 54mn
    Overall bit rate : 2 738 Kbps
    Movie name : Body.Double.1984.XviD.АСЗ.BDRip.-MediaClub
    Director : -=MediaClub-Odessit=-
    Writing application : VirtualDubMod 1.5.10.3 (build 2550/release)

    Video
    ID : 0
    Format : MPEG-4 Visual
    Format profile : Advanced Simple@L5
    Format settings, BVOP : 1
    Format settings, QPel : No
    Format settings, GMC : No warppoints
    Format settings, Matrix : Custom
    Codec ID : XVID
    Codec ID/Hint : XviD
    Duration : 1h 54mn
    Bit rate : 1 952 Kbps
    Width : 720 pixels
    Height : 384 pixels
    Display aspect ratio : 1.875
    Frame rate : 23.976 fps
    Color space : YUV
    Chroma subsampling : 4:2:0
    Bit depth : 8 bits
    Scan type : Progressive
    Compression mode : Lossy
    Bits/(Pixel*Frame) : 0.294
    Stream size : 1.56 GiB (71%)
    Writing library : XviD 73

    Audio #1
    ID : 1
    Format : AC-3
    Format/Info : Audio Coding 3
    Mode extension : CM (complete main)
    Codec ID : 2000
    Duration : 1h 54mn
    Bit rate mode : Constant
    Bit rate : 384 Kbps
    Channel(s) : 6 channels
    Channel positions : Front: L C R, Side: L R, LFE
    Sampling rate : 48.0 KHz
    Bit depth : 16 bits
    Compression mode : Lossy
    Stream size : 314 MiB (14%)
    Alignment : Split accross interleaves
    Interleave, duration : 42 ms (1.00 video frame)
    Interleave, preload duration : 500 ms

    Audio #2
    ID : 2
    Format : AC-3
    Format/Info : Audio Coding 3
    Mode extension : CM (complete main)
    Codec ID : 2000
    Duration : 1h 54mn
    Bit rate mode : Constant
    Bit rate : 384 Kbps
    Channel(s) : 6 channels
    Channel positions : Front: L C R, Side: L R, LFE
    Sampling rate : 48.0 KHz
    Bit depth : 16 bits
    Compression mode : Lossy
    Stream size : 314 MiB (14%)
    Alignment : Split accross interleaves
    Interleave, duration : 42 ms (1.00 video frame)
    Interleave, preload duration : 500 ms



    Скриншоты


    Релиз от:
    Размер: 2.18 GB (2344435712 Bytes)

    Подставное тело / Body Double (1984) BDRip от MediaClub | P скачать через торрент бесплатно
    загрузка...
    Рейтинг →
     (голосов: 1, оценка 5/5, голосовать можно 1 раз )

    Другие торренты по теме:

  • Подставное тело / Body Double (1984) BDRemux 1080p от MediaClub | P, A торрент скачать бесплатно
  • Подставное тело / Body Double (1984) BDRip 720p от MediaClub | P, A торрент скачать бесплатно
  • Подставное тело / Body Double (1984) HDRip от Rulya74 скачать через торрент бесплатно


    • Комментарии (0):

      Информация

      Информация

        Посетители, находящиеся в группе Гости, не могут оставлять комментарии в данной новости.

        ↓ Меню



        ↓ Опрос

        А Вы добавили сайт в закладки?
        Да
        Не


        Top 10 за неделю (Фильмы)