.
Авторизация | Регистрация
» » Госпожа следователь / Madame le juge (1978) TVRip скачать через торрент бесплатно




    Госпожа следователь / Madame le juge (1978) TVRip скачать через торрент бесплатно

    Опубликовал: Админ | Дата: 27-02-2015, 11:09 | Просмотров: 419




    Страна: Франция
    Производство: Antenne-2, Taurus Film, Techisonor
    Жанр: Детектив
    Год выпуска: 1978

    Продолжительность: 6 х ~ 01:30:00


    Перевод: Профессиональный двухголосый


    Оригинальная аудиодорожка: Нет

    Cубтитры: Нет


    Режиссер:Эдуар Молинаро, Клод Барма, Надин Трентиньян, Филип Кондруаэ, Клод Шаброль


    В ролях: Симона Синьоре, Дидье Одпен, Франсуа Перро, Мишель Витоль, Жан-Клод Дофен, Морис Гаррель, Рэйчел Уоррен, Жерар Виктор, Бернар Пиво, Филипп Бриго, Жан-Пьер Кастальди, Рауль Кюре, Жермэн Дельба, Жан-Пьер Даррас, Натали Делон, Анна Карина, Морис Роне




    Описание: После трагической гибели мужа, Элизабет Массо, бывший адвокат, возобновляет службу, в качестве судебного следователя. Помимо служебных дел, которые ей поручены, она должна решать проблемами в своёй повседневной жизни, с сыном Гийомом и своим свёкром. И хорошо, что она может положиться на секретаря суда, Николая, который помогает ей в её профессиональных расследованиях, и на своего старинном друга, Дероша. Она ведёт дела всегда твердо по закону, но с состраданием к обвиняемым, и всегда сумеет добраться до правды.



    Тип релиза: TVRip

    Контейнер: AVI


    Видео: 640x480 (1.33:1), 25 fps, DivX ~2065 kbps avg, 0.27 bit/pixel
    Аудио: 44.100 kHz, 2.0 ~128.00 kbps avg

    Семпл

    MediaInfo
    Общее
    Полное имя : D:залитьГоспожа следователь1 серия.avi
    Формат : AVI
    Формат/Информация : Audio Video Interleave
    Размер файла : 1,37 Гбайт
    Продолжительность : 1 ч. 28 м.
    Общий поток : 2204 Кбит/сек
    Программа кодирования : VirtualDubMod 1.5.10.2 (build 2540/release)
    Библиотека кодирования : VirtualDubMod build 2540/release

    Видео
    Идентификатор : 0
    Формат : MPEG-4 Visual
    Параметр BVOP формата : 1
    Параметр QPel формата : Нет
    Параметр GMC формата : Без точки перехода
    Параметр матрицы формата : Default (H.263)
    Режим смешивания : Сжатый битовый поток
    Идентификатор кодека : DX50
    Идентификатор кодека/Подсказка : DivX 5
    Продолжительность : 1 ч. 28 м.
    Битрейт : 2066 Кбит/сек
    Ширина : 640 пикселей
    Высота : 480 пикселей
    Соотношение сторон : 4:3
    Частота кадров : 25,000 кадров/сек
    Цветовое пространство : YUV
    Субдискретизация насыщенности : 4:2:0
    Битовая глубина : 8 бит
    Тип развёртки : Прогрессивная
    Метод сжатия : С потерями
    Бит/(Пиксели*Кадры) : 0.269
    Размер потока : 1,28 Гбайт (94%)
    Библиотека кодирования : DivX 6.8.5 (UTC 2009-08-20)

    Аудио
    Идентификатор : 1
    Формат : MPEG Audio
    Версия формата : Version 1
    Профиль формата : Layer 3
    Режим : Joint stereo
    Расширение режима : MS Stereo
    Идентификатор кодека : 55
    Идентификатор кодека/Подсказка : MP3
    Продолжительность : 1 ч. 28 м.
    Вид битрейта : Постоянный
    Битрейт : 128 Кбит/сек
    Каналы : 2 канала
    Частота : 44,1 КГц
    Метод сжатия : С потерями
    Размер потока : 81,4 Мбайт (6%)
    Выравнивание : Разделение по промежуткам
    Продолжительность промежутка : 40 мс. (1,00 видеокадр)
    Время предзагрузки промежутка : 500 мс.






    Скриншоты




    Автор рипа:
    Залил: YArl
    Размер: 8.21 GB (8810758144 Bytes)

    Госпожа следователь / Madame le juge (1978) TVRip скачать через торрент бесплатно
    загрузка...
    Рейтинг →
     (голосов: 1, оценка 4/5, голосовать можно 1 раз )

    Другие торренты по теме:

  • Госпожа министр танцует / Pani minister tanczy (1937) TVRip | A торрент скачать бесплатно
  • Госпожа Конспиратор / Заговорщица / Miss Conspirator / Misseu Go (2012) HDRip | L2 торрент скачать бесплатно
  • Госпожа Белладонна - Дискография (2012-2013) MP3 торрент скачать бесплатно
  • Госпожа кошек / The Cat Lady (2013) PC | Лицензия торрент скачать бесплатно
  • Госпожа кошек / The Cat Lady (2013) PC | Repack от Sash HD торрент скачать бесплатно
  • Госпожа горничная / Maid in Manhattan (2002) BDRip-AVC от RG Jolly Roger скачать через торрент бесплатно
  • Сеньора Смерть / Госпожа Смерть / La seora Muerte / Madame Death (1969) DVDRip | L1 скачать через торрент бесплатно
  • Госпожа Дила / Dila Hanim (2014) TVRip | L1 скачать через торрент бесплатно


    • Комментарии (0):

      Информация

      Информация

        Посетители, находящиеся в группе Гости, не могут оставлять комментарии в данной новости.

        ↓ Меню



        ↓ Опрос

        А Вы добавили сайт в закладки?
        Да
        Не


        Top 10 за неделю (Фильмы)