.
Авторизация | Регистрация
» » Вызов / Непокорная Земля / Defiance (2013) WEB-DLRip от Generalfilm | КПК | LostFilm скачать через торрент бесплатно




    Вызов / Непокорная Земля / Defiance (2013) WEB-DLRip от Generalfilm | КПК | LostFilm скачать через торрент бесплатно

    Опубликовал: Админ | Дата: 27-02-2015, 11:09 | Просмотров: 357



    Информация о фильме
    Название: Вызов / Непокорная Земля
    Оригинальное название: Defiance
    Год выхода: 2013
    Жанр: Фантастика, боевик, драма
    Режиссер: Майкл Нанкин, Омар Мадха, Скотт Чарльз Стюарт
    В ролях: Грант Боулер, Джули Бенц, Дьюшэйн Уильямс, Тони Карран, Тренна Китинг, Стефани Леонидас, Джейми Мюррэй, Николь Муньос, Джессика Николс, Джастин Рэйн

    О фильме:
    Сюжет сериала Вызов рассказывает о Земле, какой она стала после Бледных войн: противостояния землян и прилетевших на поселение инопланетян, чья система бинарных солнц превратилась в сверхновую. После того, как потери с обеих сторон достигли ужасных размеров и на Землю по ошибке попали терраформирующие машины инопланетян, горстка солдат осознала бессмысленность взаимного истребления и бросает вызов своим командирам. Цепная реакция привела к перемирию между землянами и вотанцами. В начале сериала со времен объявления перемирия прошло 15 лет. Бывший солдат Джозеф Нолан со своей приемной дочкой-инопланетянкой Айриссой попадает в некогда родной Сент-Луис, и вынужденно становится защитником местных жителей на посту шерифа. Ему предстоит жить в городе, ныне носящем гордое название Вызов, населенном представителями 6 рас, и бороться с силами, пытающимися стереть его с лица Земли.



    Список серий:
    01. Пилот. Часть 1 / Pilot. part I
    02. Пилот. Часть 2 / Pilot. part II
    03. Вниз, под землю, куда уходят мертвецы / Down In The Ground Where The Dead Men Go
    04. Дьявол во мраке / The Devil In The Dark
    05. Многоуважаемый человек / A Well Respected Man
    06. Яйцо змея / The Serpent;s Egg
    07. Братья по оружию / Brothers In Arms
    08. Прощайте, голубые небеса / Good Bye Blue Sky
    09. Я просто не создан для этих времён / I Just Wasn;t Made for These Times
    10. Если я покину этот мир живым / If I Ever Leave This World Alive
    11. Невеста в черном / The Bride Wore Black
    12. Всё, что случилось с нами, лишь пролог / Past Is Prologue
    13. Всё разрушено / Everything Is Broken

    Страна: США
    Студия: Universal Cable Productions
    Продолжительность: 13 х ~00:4:00
    Перевод: Профессиональный (многоголосый, закадровый) LostFilm

    Файл
    Формат: MP4
    Качество: WEB-DLRip | КПК
    Видео: MPEG-4 AVC (x264), 640x360, ~500 kbps, 23.976 fps
    Аудио: AAC LC, 48.0 KHz, 2 ch, 128 Kbps
    Субтитры: Английские (неотключаемые, на инопланетную речь)

    Семпл

    Скриншоты

    MI
    K:киноVyzov.S01.2013.AVC.WEB-DLRip.KPK.GeneralfilmVyzov.s01e04.2013.AVC.WEB-DLRip.KPK.Generalfilm.mp4
    Format : MPEG-4
    Format profile : Base Media
    Codec ID : isom
    File size : 187 MiB
    Duration : 41mn 31s
    Overall bit rate mode : Variable
    Overall bit rate : 630 Kbps
    Encoded date : UTC 2013-10-03 09:36:12
    Tagged date : UTC 2013-10-03 09:36:12
    Video #1
    ID : 1
    Format : AVC
    Format/Info : Advanced Video Codec
    Format profile : Baseline@L4.1
    Format settings, CABAC : No
    Format settings, ReFrames : 6 frames
    Codec ID : avc1
    Codec ID/Info : Advanced Video Coding
    Duration : 41mn 31s
    Bit rate : 500 Kbps
    Maximum bit rate : 2 835 Kbps
    Width : 640 pixels
    Height : 360 pixels
    Display aspect ratio : 16:9
    Frame rate mode : Constant
    Frame rate : 23.976 fps
    Color space : YUV
    Chroma subsampling : 4:2:0
    Bit depth : 8 bits
    Scan type : Progressive
    Bits/(Pixel*Frame) : 0.091
    Stream size : 148 MiB (79%)
    Writing library : x264 core 116 r2074 2641b9e
    Encoding settings : cabac=0 / ref=6 / deblock=1:-1:-1 / analyse=0x1:0x111 / me=umh / subme=7 / psy=1 / psy_rd=1.00:0.00 / mixed_ref=0 / me_range=16 / chroma_me=1 / trellis=1 / 8x8dct=0 / cqm=0 / deadzone=21,11 / fast_pskip=0 / chroma_qp_offset=-2 / threads=3 / sliced_threads=0 / nr=0 / decimate=1 / interlaced=0 / bluray_compat=0 / constrained_intra=0 / bframes=0 / weightp=0 / keyint=250 / keyint_min=23 / scenecut=40 / intra_refresh=0 / rc_lookahead=60 / rc=2pass / mbtree=1 / bitrate=500 / ratetol=1.0 / qcomp=0.60 / qpmin=0 / qpmax=69 / qpstep=4 / cplxblur=20.0 / qblur=0.5 / ip_ratio=1.40 / aq=1:1.00
    Encoded date : UTC 2013-10-03 09:36:12
    Tagged date : UTC 2013-10-03 09:36:26
    Audio #2
    ID : 2
    Format : AAC
    Format/Info : Advanced Audio Codec
    Format profile : LC
    Codec ID : 40
    Duration : 41mn 31s
    Bit rate mode : Variable
    Bit rate : 128 Kbps
    Maximum bit rate : 156 Kbps
    Channel(s) : 2 channels
    Channel positions : Front: L R
    Sampling rate : 48.0 KHz
    Compression mode : Lossy
    Stream size : 38.0 MiB (20%)
    Encoded date : UTC 2013-10-03 09:36:23
    Tagged date : UTC 2013-10-03 09:36:26

    Релиз от:
    Залил: toys_watch
    Размер: 2.46 GB (2638828104 Bytes)

    Вызов / Непокорная Земля / Defiance (2013) WEB-DLRip от Generalfilm | КПК | LostFilm скачать через торрент бесплатно
    загрузка...
    Рейтинг →
     (голосов: 1, оценка 5/5, голосовать можно 1 раз )

    Другие торренты по теме:



      Комментарии (0):

      Информация

      Информация

        Посетители, находящиеся в группе Гости, не могут оставлять комментарии в данной новости.

        ↓ Меню



        ↓ Опрос

        А Вы добавили сайт в закладки?
        Да
        Не


        Top 10 за неделю (Фильмы)