.
Авторизация | Регистрация
» » Власть огня / Reign of Fire (2002) BDRip от msltel | D, P2, A торрент скачать бесплатно




    Власть огня / Reign of Fire (2002) BDRip от msltel | D, P2, A торрент скачать бесплатно

    Опубликовал: Админ | Дата: 27-02-2015, 11:09 | Просмотров: 335



    Название: Власть огня
    Оригинальное название: Reign of Fire
    Год выпуска: 2002
    Жанр: Фантастика, фэнтези, боевик, триллер, приключения
    Выпущено: США, Великобритания, Ирландия, Spyglass Entertainment, The Zanuck Company, Touchstone Pictures
    Режиссер: Роб Бауман
    В ролях: Кристиан Бэйл, Мэттью МакКонахи, Изабелла Скорупко, Джерард Батлер, Скотт Моттер, Дэвид Кеннеди, Александр Сиддиг, Нед Деннехи, Рори Кинэн, Теренс Мэйнард

    О фильме: Лондон. Наши дни. Мать двенадцатилетнего Куинна случайно пробуждает гигантского огнедышащего дракона от многовекового сна. Двадцать лет спустя. Большая часть планеты находится под властью чудовища и его потомков. Драконы очень умны, им не нравится делить с кем-либо планету. Будучи начальником пожарной охраны, Куинн несет ответственность за ту маленькую группу людей, которым удалось выжить. Ведь в то время, когда всё небо залито огнём, пожарный — самый главный человек на земле.

    Качество: BDRip
    Размер: 2.73 ГБ
    Продолжительность: 01:41:58

    Видео: XviD, 1576 Кбит/с, 720х304
    Аудио 1: русский, 48 kHz, AC3, 6 ch, 448 kbps avg, Дублированный, R5
    Аудио 2: русский, 48 kHz, AC3, 6 ch, 448 kbps avg, Профессиональный двухголосый, Инна Королёва и Пётр Гланц

    Внешние файлы
    Аудио: русский, 48 kHz, AC3, 6 ch, 448 kbps avg, Авторский, Сергей Визгунов
    Аудио: русский, 48 kHz, AC3, 6 ch, 448 kbps avg, Авторский, Андрей Гаврилов
    Аудио: английский, 48 kHz, AC3, 6 ch, 448 kbps avg, Оригинал
    Субтитры: русские
    Субтитры: английские

    Сравнение с исходником



    Награды
    Сатурн, 2003 год
    Номинации (1):
    Лучший фэнтези-фильм
    Из отзывов...
    Victoria Cole-Kinney

    Первое, что запомнилось, это невероятные виды разрушенного Лондона, особенно мост. Вообще, фильм не настолько красив, насколько я ожидала. Большую часть времени действие происходит в подземелье, но драконы, конечно, потрясающие.
    Очень понравились Бэйл и Батлер. Герой Джерарда всегда найдет повод пошутить, что очень выгодно сказывается на сюжете. Отличный фильм о как-всегда-ужасном будущем.

    Кинопоиск
    MediaInfo
    Общее
    Полное имя : E:VideoVlast.ognja.2002.XviD.BDRipVlast.ognja.2002.AVO.rus.А.Гаврилов.ac3
    Формат : AC-3
    Формат/Информация : Audio Coding 3
    Размер файла : 327 Мбайт
    Продолжительность : 1 ч. 41 м.
    Режим общего битрейта : Постоянный
    Общий поток : 448 Кбит/сек

    Аудио
    Формат : AC-3
    Формат/Информация : Audio Coding 3
    Расширение режима : CM (complete main)
    Параметр Endianness формата : Big
    Продолжительность : 1 ч. 41 м.
    Вид битрейта : Постоянный
    Битрейт : 448 Кбит/сек
    Каналы : 6 каналов
    Расположение каналов : Front: L C R, Side: L R, LFE
    Частота : 48,0 КГц
    Битовая глубина : 16 бит
    Метод сжатия : С потерями
    Размер потока : 327 Мбайт (100%)

    Общее
    Полное имя : E:VideoVlast.ognja.2002.XviD.BDRipVlast.ognja.2002.AVO.rus.С.Визгунов.ac3
    Формат : AC-3
    Формат/Информация : Audio Coding 3
    Размер файла : 327 Мбайт
    Продолжительность : 1 ч. 41 м.
    Режим общего битрейта : Постоянный
    Общий поток : 448 Кбит/сек

    Аудио
    Формат : AC-3
    Формат/Информация : Audio Coding 3
    Расширение режима : CM (complete main)
    Параметр Endianness формата : Big
    Продолжительность : 1 ч. 41 м.
    Вид битрейта : Постоянный
    Битрейт : 448 Кбит/сек
    Каналы : 6 каналов
    Расположение каналов : Front: L C R, Side: L R, LFE
    Частота : 48,0 КГц
    Битовая глубина : 16 бит
    Метод сжатия : С потерями
    Размер потока : 327 Мбайт (100%)

    Общее
    Полное имя : E:VideoVlast.ognja.2002.XviD.BDRipVlast.ognja.2002.eng.srt
    Формат : SubRip
    Размер файла : 64,1 Кбайт

    Текст
    Формат : SubRip
    Метод сжатия : Без потерь

    Общее
    Полное имя : E:VideoVlast.ognja.2002.XviD.BDRipVlast.ognja.2002.Original.eng.ac3
    Формат : AC-3
    Формат/Информация : Audio Coding 3
    Размер файла : 327 Мбайт
    Продолжительность : 1 ч. 41 м.
    Режим общего битрейта : Постоянный
    Общий поток : 448 Кбит/сек

    Аудио
    Формат : AC-3
    Формат/Информация : Audio Coding 3
    Расширение режима : CM (complete main)
    Параметр Endianness формата : Big
    Продолжительность : 1 ч. 41 м.
    Вид битрейта : Постоянный
    Битрейт : 448 Кбит/сек
    Каналы : 6 каналов
    Расположение каналов : Front: L C R, Side: L R, LFE
    Частота : 48,0 КГц
    Битовая глубина : 16 бит
    Метод сжатия : С потерями
    Размер потока : 327 Мбайт (100%)

    Общее
    Полное имя : E:VideoVlast.ognja.2002.XviD.BDRipVlast.ognja.2002.rus.srt
    Формат : SubRip
    Размер файла : 83,4 Кбайт

    Текст
    Формат : SubRip
    Метод сжатия : Без потерь

    Общее
    Полное имя : E:VideoVlast.ognja.2002.XviD.BDRipVlast.ognja.2002.XviD.BDRip.avi
    Формат : AVI
    Формат/Информация : Audio Video Interleave
    Размер файла : 1,77 Гбайт
    Продолжительность : 1 ч. 41 м.
    Общий поток : 2486 Кбит/сек
    Программа кодирования : VirtualDubMod 1.5.10.2 (build 2540/release)
    Библиотека кодирования : VirtualDubMod build 2540/release

    Видео
    Идентификатор : 0
    Формат : MPEG-4 Visual
    Профиль формата : Advanced Simple@L5
    Параметр BVOP формата : 1
    Параметр QPel формата : Нет
    Параметр GMC формата : Без точки перехода
    Параметр матрицы формата : Default (H.263)
    Режим смешивания : Сжатый битовый поток
    Идентификатор кодека : XVID
    Идентификатор кодека/Подсказка : XviD
    Продолжительность : 1 ч. 41 м.
    Битрейт : 1576 Кбит/сек
    Ширина : 720 пикселей
    Высота : 304 пикселя
    Соотношение сторон : 2,35:1
    Частота кадров : 23,976 кадра/сек
    Цветовое пространство : YUV
    Субдискретизация насыщенности : 4:2:0
    Битовая глубина : 8 бит
    Тип развёртки : Прогрессивная
    Метод сжатия : С потерями
    Бит/(Пиксели*Кадры) : 0.300
    Размер потока : 1,12 Гбайт (63%)
    Библиотека кодирования : XviD 1.2.1 (UTC 2008-12-04)

    Аудио #1
    Идентификатор : 1
    Формат : AC-3
    Формат/Информация : Audio Coding 3
    Расширение режима : CM (complete main)
    Параметр Endianness формата : Big
    Идентификатор кодека : 2000
    Продолжительность : 1 ч. 41 м.
    Вид битрейта : Постоянный
    Битрейт : 448 Кбит/сек
    Каналы : 6 каналов
    Расположение каналов : Front: L C R, Side: L R, LFE
    Частота : 48,0 КГц
    Битовая глубина : 16 бит
    Метод сжатия : С потерями
    Размер потока : 327 Мбайт (18%)
    Выравнивание : Разделение по промежуткам
    Продолжительность промежутка : 42 мс. (1,00 видеокадр)
    Время предзагрузки промежутка : 500 мс.

    Аудио #2
    Идентификатор : 2
    Формат : AC-3
    Формат/Информация : Audio Coding 3
    Расширение режима : CM (complete main)
    Параметр Endianness формата : Big
    Идентификатор кодека : 2000
    Продолжительность : 1 ч. 41 м.
    Вид битрейта : Постоянный
    Битрейт : 448 Кбит/сек
    Каналы : 6 каналов
    Расположение каналов : Front: L C R, Side: L R, LFE
    Частота : 48,0 КГц
    Битовая глубина : 16 бит
    Метод сжатия : С потерями
    Размер потока : 327 Мбайт (18%)
    Выравнивание : Разделение по промежуткам
    Продолжительность промежутка : 42 мс. (1,00 видеокадр)
    Время предзагрузки промежутка : 500 мс.
    Скриншоты



    Залил: msltel
    Размер: 2.73 GB (2928941106 Bytes)

    Власть огня / Reign of Fire (2002) BDRip от msltel | D, P2, A торрент скачать бесплатно
    загрузка...
    Рейтинг →
     (голосов: 1, оценка 4/5, голосовать можно 1 раз )

    Другие торренты по теме:



      Комментарии (0):

      Информация

      Информация

        Посетители, находящиеся в группе Гости, не могут оставлять комментарии в данной новости.

        ↓ Меню



        ↓ Опрос

        А Вы добавили сайт в закладки?
        Да
        Не


        Top 10 за неделю (Фильмы)