.
Авторизация | Регистрация
» » Эта - дурацкая - любовь / Crazy, Stupid, Love (2011) BDRip от Youtracker | P торрент скачать бесплатно




    Эта - дурацкая - любовь / Crazy, Stupid, Love (2011) BDRip от Youtracker | P торрент скачать бесплатно

    Опубликовал: Админ | Дата: 27-02-2015, 11:09 | Просмотров: 349


    Год выпуска: 2011
    Страна: США
    Студии: Carousel Productions (II)

    Жанр: комедия, драма, мелодрама
    Продолжительность: 1:58:06

    Перевод: Профессиональный (дублированный)
    Субтитры: нет
    Оригинальная аудиодорожка: нет

    Режиссер: Гленн Фикарра / Glenn Ficarra, Джон Рекуа / John Requa

    В ролях: Стив Карелл, Райан Гослинг, Джулианна Мур, Эмма Стоун, Аналей Типтон, Йон Бобо, Джои Кинг, Мариса Томей, Бет Литлфорд, Джон Кэрролл Линч, Кевин Бейкон...

    Описание: У Кола Уивера, пуританских взглядов семьянина в возрасте чуть-чуть за сорок, не жизнь, а мечта — хорошая работа, прекрасный дом, замечательные дети и брак со школьной возлюбленной. Но когда Кол узнает, что его жена Эмили изменила ему и хочет развода, его идеальная жизнь быстро рушится. Хуже того, говоря современным языком, Кол, который уже пару десятилетий не ходил на свидания, являет собой настоящего лоха. И вот, проводя все свое свободное время в баре в дурном расположении духа, несчастный Кол становится протеже обаятельного (чуть-чуть за тридцать) игрока Джейкоба Палмера. Пытаясь помочь Колу забыть жену и начать собственную жизнь, Джейкоб открывает ему глаза на многочисленные возможности, открывающиеся перед ним: кокетливые женщины, крепкие напитки и чувство стиля, которое нельзя найти в дешевой парикмахерской или магазине распродаж. Кол и Эмили — не единственные, кто ищут любовь, причем, возможно, совершенно не там, где нужно: тринадцатилетний Робби, сын Кола, сходит с ума по своей семнадцатилетней няне Джессике, а та скрывает свою влюбленность в его отца. И несмотря на новый облик и новые завоевания на любовном фронте, единственное, что Кол не может переупрямить, — это собственное сердце, которое ведет его туда, с чего все когда-то начиналось...



    Исходник: Blu-ray 1080p
    Тип релиза: BDRip
    Контейнер: AVI

    Видео: 688x288 (2.40:1), 23,976 fps, XviD MPEG-4 Visual ~ 747 kbps avg, 0.157 bit/pixel
    Аудио: 48 kHz, MP3, 2 ch, ~ 128.00 kbps avg
    MediaInfo

    Общее
    Полное имя : Jeta.durackaja.ljubov;.2011Jeta.durackaja.ljubov;.2011.BDRip.avi
    Формат : AVI
    Формат/Информация : Audio Video Interleave
    Размер файла : 747 Мбайт
    Продолжительность : 1 ч. 58 м.
    Общий поток : 884 Кбит/сек
    Программа кодирования : VirtualDubModRus 1.5.10.2 (build 2542/release)
    Библиотека кодирования : VirtualDubMod build 2542/release

    Видео
    Идентификатор : 0
    Формат : MPEG-4 Visual
    Профиль формата : Advanced Simple@L5
    Параметр BVOP формата : 1
    Параметр QPel формата : Нет
    Параметр GMC формата : Без точки перехода
    Параметр матрицы формата : Выборочная
    Идентификатор кодека : XVID
    Идентификатор кодека/Подсказка : XviD
    Продолжительность : 1 ч. 58 м.
    Битрейт : 747 Кбит/сек
    Ширина : 688 пикселей
    Высота : 288 пикселей
    Соотношение сторон : 2,40:1
    Частота кадров : 23,976 кадра/сек
    Цветовое пространство : YUV
    Субдискретизация насыщенности : 4:2:0
    Битовая глубина : 8 бит
    Тип развёртки : Прогрессивная
    Метод сжатия : С потерями
    Бит/(Пиксели*Кадры) : 0.157
    Размер потока : 631 Мбайт (84%)
    Библиотека кодирования : XviD 64

    Аудио
    Идентификатор : 1
    Формат : MPEG Audio
    Версия формата : Version 1
    Профиль формата : Layer 3
    Режим : Joint stereo
    Расширение режима : MS Stereo
    Идентификатор кодека : 55
    Идентификатор кодека/Подсказка : MP3
    Продолжительность : 1 ч. 58 м.
    Вид битрейта : Постоянный
    Битрейт : 128 Кбит/сек
    Каналы : 2 канала
    Частота : 48,0 КГц
    Метод сжатия : С потерями
    Размер потока : 108 Мбайт (14%)
    Выравнивание : Соединение по промежуткам
    Продолжительность промежутка : 42 мс. (1,00 видеокадр)
    Время предзагрузки промежутка : 504 мс.
    Библиотека кодирования : LAME

    Скриншот с названием



    Скриншоты



    Залил: AVPStudio
    Размер: 746.72 MB (782991360 Bytes)

    Эта - дурацкая - любовь / Crazy, Stupid, Love (2011) BDRip от Youtracker | P торрент скачать бесплатно
    загрузка...
    Рейтинг →
     (голосов: 1, оценка 4/5, голосовать можно 1 раз )

    Другие торренты по теме:

  • Мой маленький пони: Дружба - это чудо / My Little Pony: Friendship Is Magic (2012) WEB-DLRip 720p | L1 торрент скачать бесплатно
  • Это все еда / The F Word (2006) IPTVRip от Files-x торрент скачать бесплатно
  • Чейз Джеймс Хедли - Это – мужское дело (2013) MP3 торрент скачать бесплатно
  • Держись, Чарли! Это Рождество! / Good Luck Charlie, Its Christmas! (2011) HDTVRip 720p торрент скачать бесплатно
  • Хамилтон 2: только если это не касается вашей дочери / Hamilton 2: Unless Its About Your Daughter (2012) HDRip | L1 торрент скачать бесплатно
  • Это были мы 2 / We were there: Part 2 / Bokura ga ita Kouhen (2012) DVDRip торрент скачать бесплатно
  • Снимите это немедленно! (2012) DVB торрент скачать бесплатно
  • Это не я, это другой / Cest pas moi, cest lautre (2004) DVDRip от Хихидок торрент скачать бесплатно


    • Комментарии (0):

      Информация

      Информация

        Посетители, находящиеся в группе Гости, не могут оставлять комментарии в данной новости.

        ↓ Меню



        ↓ Опрос

        А Вы добавили сайт в закладки?
        Да
        Не


        Top 10 за неделю (Фильмы)