.
Авторизация | Регистрация
Хочешь лучшие торренты? Добавь свой email!
Добавить
» » Миф / Shen hua / The Myth (2005) BDRemux 1080p от MediaClub | P, P2 скачать через торрент бесплатно




    Миф / Shen hua / The Myth (2005) BDRemux 1080p от MediaClub | P, P2 скачать через торрент бесплатно

    Опубликовал: Админ | Дата: 27-02-2015, 11:09 | Просмотров: 349



    Информация о фильме
    Название: Миф
    Оригинальное название: Shen hua (The Myth)
    Год выпуска: 2005
    Жанр: Боевик, фэнтези, исторический, приключения
    Режиссер: Стэнли Тонг
    В ролях: Джеки Чан, Хи-сун Ким, Тони Люн Ка Фай, Маллика Шерават, Кен Ло, Жунгуан Ю, Рэм Гопал Баджадж, Мин-су Чои, Джейсон Чонг, Хайама Гоу

    Описание: Главный герой – археолог, ведущий раскопки в местах древних городов и захоронений. Снимая слой за слоем, пробираясь через толщу веков, пытливый исследователь погружается в древность и мистическим образом перевоплощается в воина, от которого много веков назад зависела судьба целого народа. Миф становиться реальностью…




    Страна: Гонконг, Китай
    Студия: Emperor Motion Pictures
    Продолжительность: 02:00:38
    Перевод: Профессиональный многоголосый, профессиональный двухголосый

    Файл
    Качество: Blu-Ray Remux 1080p
    Видео: MPEG-4 AVC, 17963 Кбит/с, 1920x1080, 24.000 кадр/с
    Аудио #1: Русский (AC3, 6 ch, 448 Кбит/с) / Профессиональный многоголосый (R5)
    Аудио #2: Русский (AC3, 2 ch, 192 Кбит/с) / Профессиональный двухголосый
    Аудио #3: Русский (DTS, 6 ch, 1509 Кбит/с) / Профессиональный двухголосый (П. Гланц, И. Королёва)
    Аудио #4: Английский (DTS-HD MA, 8 ch, 2671 Кбит/с) / Дублированный
    Аудио #5: Китайский (TrueHD, 8 ch, 2115 Кбит/с)
    Субтитры: Русские, английские

    Скриншоты


    MI
    Общее
    Уникальный идентификатор : 250240743916797475640941319704217949255 (0xBC429D3C4F65DEA7BF6A782B47DC9447)
    Полное имя : D:Mои раздачиMif.2005.BDRemux-MediaClub.mkv
    Формат : Matroska
    Версия формата : Version 4 / Version 2
    Размер файла : 21,0 Гбайт
    Продолжительность : 2 ч. 0 м.
    Режим общего битрейта : Переменный
    Общий поток : 25,0 Мбит/сек
    Название фильма : MediaClub-kaspr
    Дата кодирования : UTC 2013-10-12 13:12:09
    Программа кодирования : mkvmerge v6.1.0 (;Old Devil;) built on Mar 4 2013 09:10:42
    Библиотека кодирования : libebml v1.3.0 libmatroska v1.4.0

    Видео
    Идентификатор : 1
    Формат : AVC
    Формат/Информация : Advanced Video Codec
    Профиль формата : High@L4.1
    Параметр CABAC формата : Да
    Параметр ReFrames формата : 2 кадра
    Идентификатор кодека : V_MPEG4/ISO/AVC
    Продолжительность : 2 ч. 0 м.
    Вид битрейта : Переменный
    Ширина : 1920 пикселей
    Высота : 1080 пикселей
    Соотношение сторон : 16:9
    Режим частоты кадров : Постоянный
    Частота кадров : 24,000 кадра/сек
    Цветовое пространство : YUV
    Субдискретизация насыщенности : 4:2:0
    Битовая глубина : 8 бит
    Тип развёртки : Прогрессивная
    Заголовок : MediaClub-kaspr
    Default : Да
    Forced : Да

    Аудио #1
    Идентификатор : 2
    Формат : AC-3
    Формат/Информация : Audio Coding 3
    Расширение режима : CM (complete main)
    Параметр Endianness формата : Big
    Идентификатор кодека : A_AC3
    Продолжительность : 2 ч. 0 м.
    Вид битрейта : Постоянный
    Битрейт : 448 Кбит/сек
    Каналы : 6 каналов
    Расположение каналов : Front: L C R, Side: L R, LFE
    Частота : 48,0 КГц
    Битовая глубина : 16 бит
    Метод сжатия : С потерями
    Размер потока : 387 Мбайт (2%)
    Заголовок : MVO AC3 6ch 448kbps (R5)
    Язык : Russian
    Default : Да
    Forced : Да

    Аудио #2
    Идентификатор : 3
    Формат : AC-3
    Формат/Информация : Audio Coding 3
    Расширение режима : CM (complete main)
    Параметр Endianness формата : Big
    Идентификатор кодека : A_AC3
    Продолжительность : 2 ч. 0 м.
    Вид битрейта : Постоянный
    Битрейт : 192 Кбит/сек
    Каналы : 2 канала
    Расположение каналов : Front: L R
    Частота : 48,0 КГц
    Битовая глубина : 16 бит
    Метод сжатия : С потерями
    Размер потока : 166 Мбайт (1%)
    Заголовок : DVO AC3 2ch 192kbps
    Язык : Russian
    Default : Нет
    Forced : Нет

    Аудио #3
    Идентификатор : 4
    Формат : DTS
    Формат/Информация : Digital Theater Systems
    Режим : 16
    Параметр Endianness формата : Big
    Идентификатор кодека : A_DTS
    Продолжительность : 2 ч. 0 м.
    Вид битрейта : Постоянный
    Битрейт : 1510 Кбит/сек
    Каналы : 6 каналов
    Расположение каналов : Front: L C R, Side: L R, LFE
    Частота : 48,0 КГц
    Битовая глубина : 24 бит
    Метод сжатия : С потерями
    Размер потока : 1,27 Гбайт (6%)
    Заголовок : DVO DTS 6ch 1510kbps (Гланц )
    Язык : Russian
    Default : Нет
    Forced : Нет

    Аудио #4
    Идентификатор : 5
    Формат : DTS
    Формат/Информация : Digital Theater Systems
    Профиль формата : MA / Core
    Режим : 16
    Параметр Endianness формата : Big
    Идентификатор кодека : A_DTS
    Продолжительность : 2 ч. 0 м.
    Вид битрейта : Переменный
    Битрейт : Неизвестно / 1152 Кбит/сек
    Каналы : 8 каналов / 6 каналов
    Расположение каналов : Front: L C R, Side: L R, Back: L R, LFE / Front: L C R, Side: L R, LFE
    Частота : 48,0 КГц
    Битовая глубина : 16 бит
    Метод сжатия : Без потерь / Lossy
    Язык : English
    Default : Нет
    Forced : Нет

    Аудио #5
    Идентификатор : 6
    Формат : TrueHD
    Идентификатор кодека : A_TRUEHD
    Продолжительность : 2 ч. 0 м.
    Вид битрейта : Переменный
    Максимальный битрейт : 3381 Кбит/сек
    Каналы : 8 каналов
    Расположение каналов : Front: L C R, Side: L R, Back: L R, LFE
    Частота : 48,0 КГц
    Метод сжатия : Без потерь
    Язык : Chinese
    Default : Нет
    Forced : Нет

    Текст #1
    Идентификатор : 7
    Формат : UTF-8
    Идентификатор кодека : S_TEXT/UTF8
    Идентификатор кодека/Информация : UTF-8 Plain Text
    Язык : Russian
    Default : Нет
    Forced : Нет

    Текст #2
    Идентификатор : 8
    Формат : UTF-8
    Идентификатор кодека : S_TEXT/UTF8
    Идентификатор кодека/Информация : UTF-8 Plain Text
    Язык : English
    Default : Нет
    Forced : Нет

    Меню
    00:00:00.000 : en:00:00:00.000
    00:03:51.083 : en:00:03:51.083
    00:10:10.917 : en:00:10:10.917
    00:15:58.083 : en:00:15:58.083
    00:19:52.083 : en:00:19:52.083
    00:21:04.917 : en:00:21:04.917
    00:26:30.000 : en:00:26:30.000
    00:31:14.083 : en:00:31:14.083
    00:39:11.083 : en:00:39:11.083
    00:46:05.083 : en:00:46:05.083
    00:48:24.917 : en:00:48:24.917
    00:51:12.833 : en:00:51:12.833
    00:54:56.500 : en:00:54:56.500
    01:01:42.833 : en:01:01:42.833
    01:09:29.083 : en:01:09:29.083
    01:16:59.083 : en:01:16:59.083
    01:23:38.083 : en:01:23:38.083
    01:30:03.500 : en:01:30:03.500
    01:33:21.542 : en:01:33:21.542
    01:38:52.583 : en:01:38:52.583
    01:42:28.583 : en:01:42:28.583
    01:47:25.583 : en:01:47:25.583
    01:51:10.083 : en:01:51:10.083
    01:53:37.583 : en:01:53:37.583

    Релиз:
    Залил: kaspr
    Размер: 21.04 GB (22592809828 Bytes)

    Миф / Shen hua / The Myth (2005) BDRemux 1080p от MediaClub | P, P2 скачать через торрент бесплатно
    загрузка...
    Рейтинг →
     (голосов: 1, оценка 3/5, голосовать можно 1 раз )

    Другие торренты по теме:

  • Миф / Shen hua (2005) BDRip от HQ-ViDEO
  • Миф об идеальном мужчине (2005) DVDRip от MediaClub | КПК
  • Миф об американской вечеринке / The Myth of the American Sleepover / 2010 / СТ / DVDRip


    • Комментарии (0):

      Информация

      Информация

        Посетители, находящиеся в группе Гости, не могут оставлять комментарии в данной новости.

        ↓ Меню



        ↓ Опрос

        А Вы добавили сайт в закладки?
        Да
        Не


        Top 10 за месяц (Фильмы)