.
Авторизация | Регистрация
» » Ледяной / The Iceman (2013) BDRip 1080p от MULTIBITS | P, L2, L скачать через торрент бесплатно




    Ледяной / The Iceman (2013) BDRip 1080p от MULTIBITS | P, L2, L скачать через торрент бесплатно

    Опубликовал: Админ | Дата: 27-02-2015, 11:09 | Просмотров: 272



    Информация о фильме
    Название: Ледяной
    Оригинальное название: The Iceman
    Год выхода: 2013
    Жанр: триллер, драма, криминал, биография
    Режиссер: Ариэль Вромен
    В ролях: Майкл Шеннон, Вайнона Райдер, Рэй Лиотта, Крис Эванс, Дэвид Швиммер, Роберт Дави, Дэнни А. Абекейзер, Джон Вентимилья, Райан О’Нан, МакКали Миллер

    О фильме:
    Криминальный байопик проливает свет на историю о наемном убийце Ричарде Куклински, сумевшем долгое время параллельно вести две абсолютно взаимоисключающие жизни: с одной стороны он жестокий киллер, с другой — образцовый семьянин. За 20 лет Куклински убил сотни человек и прославился под прозвищем Ледяной за то, что замораживал трупы своих жертв в промышленных рефрижераторах. Однако зыбкое равновесие между криминальными делами и семейным счастьем обречено было однажды разрушиться.



    Выпущено: США / Bleiberg Entertainment, Millennium Films, RabbitBandini Productions
    Продолжительность: 01:45:27
    Озвучивание: Профессиональное (многоголосное) НТВ / Любительское (двухголосое) Пираты / Любительское (одноголосое) Артем Белоконский

    Файл
    Формат: MKV (x264)
    Качество: BDRip 1080p
    Видео: 11.7 Мбит/с, 1920x1080
    Звук: AC3, 192 Кбит/с (2 ch) P / AC3, 448 Кбит/с (6 ch) L2/L
    Субтитры: Русские
    Дополнительно: Сохранены оригинальные чаптеры

    Семпл



    MI
    Format : Matroska
    Format version : Version 4 / Version 2
    File size : 9.58 GiB
    Duration : 1h 45mn
    Overall bit rate : 13.0 Mbps
    Encoded date : UTC 2013-10-12 09:53:24
    Writing application : mkvmerge v6.4.1 (;Omega Point;) built on Sep 16 2013 22:05:10
    Writing library : libebml v1.3.0 libmatroska v1.4.1

    Video
    ID : 1
    Format : AVC
    Format/Info : Advanced Video Codec
    Format profile : High@L4.1
    Format settings, CABAC : Yes
    Format settings, ReFrames : 4 frames
    Codec ID : V_MPEG4/ISO/AVC
    Duration : 1h 45mn
    Bit rate : 11.7 Mbps
    Width : 1 920 pixels
    Height : 1 080 pixels
    Display aspect ratio : 16:9
    Frame rate mode : Constant
    Frame rate : 23.976 fps
    Color space : YUV
    Chroma subsampling : 4:2:0
    Bit depth : 8 bits
    Scan type : Progressive
    Bits/(Pixel*Frame) : 0.235
    Stream size : 8.59 GiB (90%)
    Writing library : x264 core 133 r2334 704 50 a7549b7 tMod 8-bit@4:2:0 X86_64
    Encoding settings : cabac=1 / ref=4 / deblock=1:-3:-3 / analyse=0x3:0x113 / me=umh / subme=10 / psy=1 / fade_compensate=0.00 / psy_rd=1.05:0.00 / mixed_ref=1 / me_range=32 / chroma_me=1 / trellis=2 / 8x8dct=1 / cqm=0 / deadzone=21,11 / fast_pskip=1 / chroma_qp_offset=-2 / threads=64 / lookahead_threads=8 / sliced_threads=0 / nr=0 / decimate=1 / interlaced=0 / bluray_compat=0 / constrained_intra=0 / fgo=0 / bframes=8 / b_pyramid=2 / b_adapt=2 / b_bias=0 / direct=3 / weightb=1 / open_gop=0 / weightp=2 / keyint=240 / keyint_min=23 / scenecut=40 / intra_refresh=0 / rc_lookahead=50 / rc=crf / mbtree=1 / crf=17.5000 / qcomp=0.70 / qpmin=0 / qpmax=69 / qpstep=4 / vbv_maxrate=50000 / vbv_bufsize=50000 / crf_max=0.0 / nal_hrd=none / ip_ratio=1.40 / aq=4:0.85 / aq-sensitivity=10.00 / aq-factor=1.00:1.00:1.00 / aq2=1:0.70 / aq2-sensitivity=10.00 / aq2-factor=1.00:1.00:1.00 / aq3=1:0.70:0.70:0.70:0.70:0.70:0.70:0.70:0.70 / aq3-sensitivity=10.00 / aq3-factor=1.00:1.00:1.00:1.00:1.00:1.00 / aq3-boundary=192:64:24
    Language : English
    Default : Yes
    Forced : No

    Audio #1
    ID : 2
    Format : AC-3
    Format/Info : Audio Coding 3
    Mode extension : CM (complete main)
    Format settings, Endianness : Big
    Codec ID : A_AC3
    Duration : 1h 45mn
    Bit rate mode : Constant
    Bit rate : 192 Kbps
    Channel count : 2 channels
    Channel positions : Front: L R
    Sampling rate : 48.0 KHz
    Bit depth : 16 bits
    Compression mode : Lossy
    Stream size : 145 MiB (1%)
    Title : Нтв
    Language : Russian
    Default : Yes
    Forced : Yes

    Audio #2
    ID : 3
    Format : AC-3
    Format/Info : Audio Coding 3
    Mode extension : CM (complete main)
    Format settings, Endianness : Big
    Codec ID : A_AC3
    Duration : 1h 45mn
    Bit rate mode : Constant
    Bit rate : 448 Kbps
    Channel count : 6 channels
    Channel positions : Front: L C R, Side: L R, LFE
    Sampling rate : 48.0 KHz
    Bit depth : 16 bits
    Compression mode : Lossy
    Stream size : 338 MiB (3%)
    Title : Пираты
    Language : Russian
    Default : No
    Forced : No

    Audio #3
    ID : 4
    Format : AC-3
    Format/Info : Audio Coding 3
    Mode extension : CM (complete main)
    Format settings, Endianness : Big
    Codec ID : A_AC3
    Duration : 1h 45mn
    Bit rate mode : Constant
    Bit rate : 448 Kbps
    Channel count : 6 channels
    Channel positions : Front: L C R, Side: L R, LFE
    Sampling rate : 48.0 KHz
    Bit depth : 16 bits
    Compression mode : Lossy
    Stream size : 338 MiB (3%)
    Title : Артём Белоконский
    Language : Russian
    Default : No
    Forced : No

    Text
    ID : 5
    Format : UTF-8
    Codec ID : S_TEXT/UTF8
    Codec ID/Info : UTF-8 Plain Text
    Language : Russian
    Default : No
    Forced : No

    Menu
    00:00:00.000 : en:00:00:00.000
    00:08:11.491 : en:00:08:11.491
    00:17:14.575 : en:00:17:14.575
    00:24:57.830 : en:00:24:57.830
    00:35:08.273 : en:00:35:08.273
    00:45:57.630 : en:00:45:57.630
    00:56:20.377 : en:00:56:20.377
    01:04:05.425 : en:01:04:05.425
    01:13:03.588 : en:01:13:03.588
    01:19:42.569 : en:01:19:42.569
    01:31:17.055 : en:01:31:17.055
    01:39:52.403 : en:01:39:52.403
    Скриншоты


    Релиз от:
    Размер: 9.58 GB (10289695599 Bytes)

    Ледяной / The Iceman (2013) BDRip 1080p от MULTIBITS | P, L2, L скачать через торрент бесплатно
    загрузка...
    Рейтинг →
     (голосов: 1, оценка 3/5, голосовать можно 1 раз )

    Другие торренты по теме:

  • Снеговик / Ледяной Джек / Джек Фрост / Jack Frost (1998) DVDRip-AVC торрент скачать бесплатно
  • Forsaken World Ледяной рубеж (2011) PC торрент скачать бесплатно
  • Ледяной дождь / Ice Rain / Bingwoo (2004) DVDRip | L1 торрент скачать бесплатно
  • Ледяные глаза генсека (2013) SATRip торрент скачать бесплатно
  • Ледяной урожай / The Ice Harvest (2005) HDTVRip от Scarabey | D торрент скачать бесплатно
  • Живые Легенды: Ледяная Красавица / Living Legends 2: Frozen Beauty CE (2013) РС торрент скачать бесплатно
  • Ледяной шторм / Ice Twisters (2009) BDRip от Rulya74 | P, P2 | лицензия торрент скачать бесплатно
  • Ледяной ветер / The Ice Storm (1997) BDRip 720p | P2, A торрент скачать бесплатно


    • Комментарии (0):

      Информация

      Информация

        Посетители, находящиеся в группе Гости, не могут оставлять комментарии в данной новости.

        ↓ Меню



        ↓ Опрос

        А Вы добавили сайт в закладки?
        Да
        Не


        Top 10 за неделю (Фильмы)