.
Авторизация | Регистрация
Хочешь лучшие торренты? Добавь свой email!
Добавить
» » Убить Булью / Kill Buljo: The Movie (2007) DVDRip | P торрент скачать бесплатно




    Убить Булью / Kill Buljo: The Movie (2007) DVDRip | P торрент скачать бесплатно

    Опубликовал: Админ | Дата: 27-02-2015, 11:09 | Просмотров: 686



    Информация о фильме
    Название: Убить Булью
    Оригинальное название: Kill Buljo: The Movie
    Год выхода: 2007
    Жанр: Комедия, пародия
    Режиссер: Томми Виркола
    В ролях: Стиг Фроде Хенриксон, Томми Виркола, Наташа Энджел Дахле, Линда Ёверли Нильсен, Мартин Хиккеруд, Фрэнк Арне Олсен

    О фильме:
    Пародия на фильм Убить Билла. Норвежский чукча по имени Юмпа Турман выживает после кровавой бани, которая произошла во время его помолвки и он решает отомстить всем, кто пытался его убить.





    Страна: Норвегия
    Студия: Yellow Bastard Production
    Продолжительность: 01:32:00
    Перевод: Профессиональный многоголосый
    Файл
    Кодек: XviD
    Качество: DVDRip
    Видео: 688x368, 25 fps , 1015 kbps avg , 0.16 bit/pixel
    Звук: MP3, 48 kHz, 2ch, 128 kbps avg
    Субтитры: отсутствуют

    Релиз от:

    Автор рипа: _Bathory_

    Скриншоты

    MediaInfo
    General
    Complete name : F:kill.buljo.2007.DVDRip.by_Bathory.avi
    Format : AVI
    Format/Info : Audio Video Interleave
    File size : 755 MiB
    Duration : 1h 32mn
    Overall bit rate mode : Variable
    Overall bit rate : 1 147 Kbps

    Video
    ID : 0
    Format : MPEG-4 Visual
    Format profile : Advanced Simple@L5
    Format settings, BVOP : 2
    Format settings, QPel : No
    Format settings, GMC : No warppoints
    Format settings, Matrix : Default (H.263)
    Codec ID : XVID
    Codec ID/Hint : XviD
    Duration : 1h 32mn
    Bit rate : 1 015 Kbps
    Width : 688 pixels
    Height : 368 pixels
    Display aspect ratio : 1.85:1
    Frame rate : 25.000 fps
    Color space : YUV
    Chroma subsampling : 4:2:0
    Bit depth : 8 bits
    Scan type : Progressive
    Compression mode : Lossy
    Bits/(Pixel*Frame) : 0.160
    Stream size : 668 MiB (88%)
    Writing library : XviD 1.2.1 (UTC 2008-12-04)

    Audio
    ID : 1
    Format : MPEG Audio
    Format version : Version 1
    Format profile : Layer 3
    Mode : Joint stereo
    Mode extension : MS Stereo
    Codec ID : 55
    Codec ID/Hint : MP3
    Duration : 1h 32mn
    Bit rate mode : Variable
    Bit rate : 119 Kbps
    Nominal bit rate : 128 Kbps
    Channel count : 2 channels
    Sampling rate : 48.0 KHz
    Compression mode : Lossy
    Stream size : 78.4 MiB (10%)
    Alignment : Aligned on interleaves
    Interleave, duration : 24 ms (0.60 video frame)
    Interleave, preload duration : 199 ms
    Title : VTS_02_1 T80 3_2ch 384Kbps DELAY 0ms_new_new
    Writing library : LAME3.99r
    Encoding settings : -m j -V 4 -q 2 -lowpass 17 --abr 128


    Залил: _Bathory_
    Размер: 754.52 MB (791173938 Bytes)

    Убить Булью / Kill Buljo: The Movie (2007) DVDRip | P торрент скачать бесплатно
    загрузка...
    Рейтинг →
     (голосов: 1, оценка 5/5, голосовать можно 1 раз )

    Другие торренты по теме:



      Комментарии (0):

      Информация

      Информация

        Посетители, находящиеся в группе Гости, не могут оставлять комментарии в данной новости.

        ↓ Меню



        ↓ Опрос

        А Вы добавили сайт в закладки?
        Да
        Не


        Top 10 за месяц (Фильмы)