.
Авторизация | Регистрация
» » Безумные преподы / Les profs (2013) BDRip 1080p от MULTIBITS | Лицензия торрент скачать бесплатно




    Безумные преподы / Les profs (2013) BDRip 1080p от MULTIBITS | Лицензия торрент скачать бесплатно

    Опубликовал: Админ | Дата: 27-02-2015, 11:09 | Просмотров: 241



    Информация о фильме
    Название: Безумные преподы
    Оригинальное название: Les profs
    Год выхода: 2013
    Жанр: комедия
    Режиссер: Пьер-Франсуа Мартен-Лаваль
    В ролях: Кристиан Клавье, Изабель Нанти, Пьер-Франсуа Мартен-Лаваль, Кев Адамс, Франсуа Морель, Арно Дюкре, Стефи Сельма, Рэймонд Бочар, Фред Туш, Филипп Дюкло

    О фильме:
    Лицей имени Жюля Ферри — худший во Франции. Показатели успеваемости настолько низки, что школа на грани закрытия. Единственный шанс спасти учебное заведение — не провалить ЕГЭ, на что решительно настроены учащиеся старшего класса — редкие бездельники и раздолбаи.
    Чтобы избежать позора, директор вызывает подкрепление: десант сумасбродных преподов, которые оказываются не намного лучше своих учеников. В их числе брутальный качок Эрик (учитель физкультуры), отвязная толстуха с бензопилой Глэдис (учитель английского), фанатичный экспериментатор Альберт (учитель химии), сексапильная шоколадка Амина (учитель французского), безобидный отморозок в костюме Наполеона Полошон (учитель истории) и преподаватель неопознанного предмета, любитель покурить травку и поговорить о том о сем — пофигист Кутиро. Если лучшее решение — худший учитель, как они сдадут ЕГЭ?



    Выпущено: Франция / Canal , Cin?, Les films du 24, Sofica UGC 1, Soficin?ma 9, TF1, TF1 Droits Audiovisuels
    Продолжительность: 01:24:32
    Озвучивание: Дублированное лицензия

    Файл
    Формат: MKV (x264)
    Качество: BDRip 1080p
    Видео: 9363 Кбит/с, 1920x816
    Звук: AC3, 384 Кбит/с (6 ch)
    Дополнительно: Сохранены оригинальные чаптеры

    Семпл



    MI
    Format : Matroska
    Format version : Version 4 / Version 2
    File size : 5.89 GiB
    Duration : 1h 24mn
    Overall bit rate : 9 972 Kbps
    Encoded date : UTC 2013-10-13 08:29:22
    Writing application : mkvmerge v6.4.1 (;Omega Point;) built on Sep 16 2013 22:05:10
    Writing library : libebml v1.3.0 libmatroska v1.4.1

    Video
    ID : 1
    Format : AVC
    Format/Info : Advanced Video Codec
    Format profile : High@L4.1
    Format settings, CABAC : Yes
    Format settings, ReFrames : 5 frames
    Codec ID : V_MPEG4/ISO/AVC
    Duration : 1h 24mn
    Bit rate : 9 591 Kbps
    Width : 1 920 pixels
    Height : 816 pixels
    Display aspect ratio : 2.35:1
    Frame rate mode : Constant
    Frame rate : 25.000 fps
    Color space : YUV
    Chroma subsampling : 4:2:0
    Bit depth : 8 bits
    Scan type : Progressive
    Bits/(Pixel*Frame) : 0.245
    Stream size : 5.54 GiB (94%)
    Writing library : x264 core 135 r2345 f0c1c53
    Encoding settings : cabac=1 / ref=5 / deblock=1:0:0 / analyse=0x3:0x133 / me=umh / subme=8 / psy=1 / psy_rd=1.00:0.00 / mixed_ref=1 / me_range=16 / chroma_me=1 / trellis=1 / 8x8dct=1 / cqm=0 / deadzone=21,11 / fast_pskip=0 / chroma_qp_offset=-2 / threads=24 / lookahead_threads=4 / sliced_threads=0 / nr=0 / decimate=1 / interlaced=0 / bluray_compat=0 / constrained_intra=0 / bframes=3 / b_pyramid=2 / b_adapt=1 / b_bias=0 / direct=1 / weightb=1 / open_gop=0 / weightp=2 / keyint=250 / keyint_min=25 / scenecut=40 / intra_refresh=0 / rc=2pass / mbtree=0 / bitrate=9591 / ratetol=1.0 / qcomp=0.60 / qpmin=0 / qpmax=69 / qpstep=4 / cplxblur=20.0 / qblur=0.5 / ip_ratio=1.40 / pb_ratio=1.30 / aq=1:1.00
    Language : English
    Default : No
    Forced : No

    Audio
    ID : 2
    Format : AC-3
    Format/Info : Audio Coding 3
    Mode extension : CM (complete main)
    Format settings, Endianness : Big
    Codec ID : A_AC3
    Duration : 1h 24mn
    Bit rate mode : Constant
    Bit rate : 384 Kbps
    Channel count : 6 channels
    Channel positions : Front: L C R, Side: L R, LFE
    Sampling rate : 48.0 KHz
    Bit depth : 16 bits
    Compression mode : Lossy
    Stream size : 232 MiB (4%)
    Title : Russian, AC3, 6ch, 384 kbps
    Language : Russian
    Default : Yes
    Forced : No

    Menu
    00:00:00.000 : en:00:00:00.000
    00:06:40.600 : en:00:06:40.600
    00:14:56.720 : en:00:14:56.720
    00:20:55.280 : en:00:20:55.280
    00:27:22.000 : en:00:27:22.000
    00:35:34.240 : en:00:35:34.240
    00:42:53.920 : en:00:42:53.920
    00:50:22.320 : en:00:50:22.320
    00:56:55.400 : en:00:56:55.400
    01:04:22.800 : en:01:04:22.800
    01:10:37.120 : en:01:10:37.120
    01:15:52.000 : en:01:15:52.000
    01:20:33.720 : en:01:20:33.720
    Скриншоты


    Релиз от:
    Размер: 5.89 GB (6323222840 Bytes)

    Безумные преподы / Les profs (2013) BDRip 1080p от MULTIBITS | Лицензия торрент скачать бесплатно
    загрузка...
    Рейтинг →
     (голосов: 1, оценка 4/5, голосовать можно 1 раз )

    Другие торренты по теме:



      Комментарии (0):

      Информация

      Информация

        Посетители, находящиеся в группе Гости, не могут оставлять комментарии в данной новости.

        ↓ Меню



        ↓ Опрос

        А Вы добавили сайт в закладки?
        Да
        Не


        Top 10 за неделю (Фильмы)