.
Авторизация | Регистрация
Хочешь лучшие торренты? Добавь свой email!
Добавить
» » Связь / Прикосновение / Контакт / Touch (2012) WEB-DL 720p от HDClub | Первый канал торрент скачать бесплатно




    Связь / Прикосновение / Контакт / Touch (2012) WEB-DL 720p от HDClub | Первый канал торрент скачать бесплатно

    Опубликовал: Админ | Дата: 27-02-2015, 11:09 | Просмотров: 344



    Информация о фильме
    Название: Связь / Прикосновение / Контакт
    Оригинальное название: Touch
    Год выхода: 2012
    Жанр: Мистический детектив, психологическая драма
    Режиссер: Френсис Лоуренс
    В ролях: Кифер Сазерленд, Дэвид Мазоуз, Гугу Мбата-Роу, Дэнни Гловер, Карен Шенас-Дэвид, Роксана Бруссо, Дэвид Хааг, Титус Уэлливер, Саймон Делани, Девид де Латур

    О фильме:
    Он потерял любимую жену, и остался один воспитывать своего сына - аутиста. Все свое время он тратит на то, чтобы понять особое мышление своего сына и наладить с ним контакт, но до сих пор его попытки не приносили должного успеха, его ребенок оставался таким же молчаливым и замкнутым. Но в один момент Мартин понимает что его сын обладает особым даром гения - он предвидит события будущего, точки в которых действия одного человека могут подействовать на жизни других. Но выражает он свои видения в цифрах, расшифровать которые и предстоит его отцу, помешав тем самым случиться трагедии.



    Страна: США
    Продолжительность: 12 x ~ 00:43:00
    Перевод: Профессиональный многоголосый закадровый (Первый канал)

    Файл
    Кодек: H.264
    Качество: WEB-DL 720p
    Видео: 1280x720, 23.976 fps, ~4000 kbps, 0.18 bit/pixel
    Звук:
    Аудио #1: Русский: 48 kHz, AC3, 3/2 (L,C,R,l,r) LFE ch, ~384.00 kbps avg |Многоголосый закадровый, Первый канал|
    Аудио #2: Английский: 48 kHz, AC3, 3/2 (L,C,R,l,r) LFE ch, ~384.00 kbps avg
    Субтитры: Русские, Английские
    В 3-й серии дорожка Первого канала - 48 kHz, AC3, 2/0 (L,R) ch, ~192.00 kbps avg

    MI

    Цитата:
    General
    Complete name : Touch.S01E01.720p.WEB-DL.Rus.Eng.HDCLUB.mkv
    Format : Matroska
    Format version : Version 2
    File size : 1.72 GiB
    Duration : 50mn 13s
    Overall bit rate : 4 894 Kbps
    Movie name : Touch Season 1 (2012) - Release for HDCLUB
    Encoded date : UTC 2012-03-30 08:50:35
    Writing application : mkvmerge v5.4.0 (;Piper;) built on Mar 10 2012 13:34:39
    Writing library : libebml v1.2.3 libmatroska v1.3.0

    Video
    ID : 1
    Format : AVC
    Format/Info : Advanced Video Codec
    Format profile : High@L3.1
    Format settings, CABAC : No
    Format settings, ReFrames : 2 frames
    Codec ID : V_MPEG4/ISO/AVC
    Duration : 50mn 13s
    Bit rate : 4 028 Kbps
    Width : 1 280 pixels
    Height : 720 pixels
    Display aspect ratio : 16:9
    Frame rate : 23.976 fps
    Color space : YUV
    Chroma subsampling : 4:2:0
    Bit depth : 8 bits
    Scan type : Progressive
    Bits/(Pixel*Frame) : 0.182
    Stream size : 1.41 GiB (82%)
    Title : Touch S01E01: Pilot / Пилот - Release for HDCLUB
    Language : English
    Default : Yes
    Forced : No
    Color primaries : BT.709-5, BT.1361, IEC 61966-2-4, SMPTE RP177
    Transfer characteristics : BT.709-5, BT.1361
    Matrix coefficients : BT.709-5, BT.1361, IEC 61966-2-4 709, SMPTE RP177

    Audio #1
    ID : 2
    Format : AC-3
    Format/Info : Audio Coding 3
    Mode extension : CM (complete main)
    Codec ID : A_AC3
    Duration : 50mn 13s
    Bit rate mode : Constant
    Bit rate : 384 Kbps
    Channel(s) : 6 channels
    Channel positions : Front: L C R, Side: L R, LFE
    Sampling rate : 48.0 KHz
    Bit depth : 16 bits
    Compression mode : Lossy
    Stream size : 138 MiB (8%)
    Title : Первый канал
    Language : Russian
    Default : Yes
    Forced : No

    Audio #2
    ID : 3
    Format : AC-3
    Format/Info : Audio Coding 3
    Mode extension : CM (complete main)
    Codec ID : A_AC3
    Duration : 50mn 13s
    Bit rate mode : Constant
    Bit rate : 384 Kbps
    Channel(s) : 6 channels
    Channel positions : Front: L C R, Side: L R, LFE
    Sampling rate : 48.0 KHz
    Bit depth : 16 bits
    Compression mode : Lossy
    Stream size : 138 MiB (8%)
    Language : English
    Default : No
    Forced : No

    Text #1
    ID : 4
    Format : UTF-8
    Codec ID : S_TEXT/UTF8
    Codec ID/Info : UTF-8 Plain Text
    Language : Russian
    Default : No
    Forced : No

    Text #2
    ID : 5
    Format : UTF-8
    Codec ID : S_TEXT/UTF8
    Codec ID/Info : UTF-8 Plain Text
    Language : English
    Default : No
    Forced : No


    Скриншоты






    Релиз от: by Nez
    Размер: 17.87 GB (19187386977 Bytes)

    Связь / Прикосновение / Контакт / Touch (2012) WEB-DL 720p от HDClub | Первый канал торрент скачать бесплатно
    загрузка...
    Рейтинг →
     (голосов: 1, оценка 5/5, голосовать можно 1 раз )

    Другие торренты по теме:

  • Связь / Прикосновение / Контакт / Touch (2013) WEB-DLRip от Boerboel-frol | LostFilm
  • Порочная связь / Oops! (2003) SATRip от Files-x | P
  • Связь / Прикосновение / Контакт / Touch (2012) WEB-DL 720p от HDClub | LostFilm скачать через торрент бесплатно
  • Связь / Прикосновение / Контакт / Touch (2012-2013) WEB-DLRip l LostFilm
  • Связь через пиццерию / Pizza Connection (1985) DVDRip скачать через торрент бесплатно
  • 3G - Связь, которая убивает / 3G - A Killer Connection (2013) DVDRip | L скачать через торрент бесплатно
  • Связь через пиццерию / Pizza Connection (1985) DVDRip от FilmRus | P скачать через торрент бесплатно
  • Связь через пиццерию / Pizza Connection (1985) DVDRip-AVC


    • Комментарии (0):

      Информация

      Информация

        Посетители, находящиеся в группе Гости, не могут оставлять комментарии в данной новости.

        ↓ Меню



        ↓ Опрос

        А Вы добавили сайт в закладки?
        Да
        Не


        Top 10 за месяц (Фильмы)