.
Авторизация | Регистрация
» » Тайное дитя / Tyskungen / The Hidden Child (2013) HDRip от BitTracker | L1 скачать через торрент бесплатно




    Тайное дитя / Tyskungen / The Hidden Child (2013) HDRip от BitTracker | L1 скачать через торрент бесплатно

    Опубликовал: Админ | Дата: 27-02-2015, 11:09 | Просмотров: 303



    Информация о фильме
    Название: Тайное дитя
    Оригинальное название: Tyskungen / The Hidden Child
    Год выхода: 2013
    Жанр: Криминал, детектив, триллер
    Режиссер: Пер Ханефьорд / Per Hanefjord
    В ролях: Клаудия Галли, Рихард Ульфсетер, Эва Фритьофсон, Памела Кортес Бруна, Леннарт Йенкель, Амалия Хольм Бьельке, Фэнни Клефельт, Эдвин Эндре, Аксель Мюрберг, Ким Сольфельдт

    О фильме:
    Живописный рыбацкий городок Фьелльбакка на побережье Атлантики выглядит как ожившая туристическая открытка. Именно сюда возвращается автор детективов Эрика, мечтая предаться счастливой семейной жизни и творчеству. Но тихая провинциальная жизнь таит немало секретов. И однажды вековой покой Фьелльбакки взрывается новостью о жестоком убийстве…




    Страна: Швеция
    Студия: Tre V?nner Produktion AB
    Продолжительность: 01:45:03
    Перевод: Любительский (один голос) - (Хихикающий Доктор)

    Файл
    Кодек: XviD
    Качество: HDRip
    Видео: 720x304 (2.37:1), 24.000 fps, XviD build 50 ~1593 kbps avg, 0.30 bit/pixel
    Звук: 48 kHz, AC3 Dolby Digital, 3/2 (L,C,R,l,r) LFE ch, ~384.00 kbps avg
    Субтитры: нет

    Семпл

    MediaInfo

    Общее
    Полное имя : S:ФильмыТайное дитя. 2013. HDRip. 1.45 (AleksSin).avi
    Формат : AVI
    Формат/Информация : Audio Video Interleave
    Размер файла : 1,46 Гбайт
    Продолжительность : 1 ч. 45 м.
    Общий поток : 1987 Кбит/сек
    Программа кодирования : VirtualDubMod 1.5.10.3 | www.virtualdub-fr.org || (build 2550/release)
    Библиотека кодирования : VirtualDubMod build 2550/release

    Видео
    Идентификатор : 0
    Формат : MPEG-4 Visual
    Профиль формата : Advanced Simple@L5
    Параметр BVOP формата : 2
    Параметр QPel формата : Нет
    Параметр GMC формата : Без точки перехода
    Параметр матрицы формата : Default (H.263)
    Идентификатор кодека : XVID
    Идентификатор кодека/Подсказка : XviD
    Продолжительность : 1 ч. 45 м.
    Битрейт : 1593 Кбит/сек
    Ширина : 720 пикс.
    Высота : 304 пикс.
    Соотношение сторон : 2,35:1
    Частота кадров : 24,000 кадр/сек
    Цветовое пространство : YUV
    Подвыборка цветности : 4:2:0
    Битовая глубина : 8 бит
    Тип развёртки : Прогрессивная
    Метод сжатия : С потерями
    Бит/(Пиксели*Кадры) : 0.303
    Размер потока : 1,17 Гбайт (80%)
    Библиотека кодирования : XviD 1.2.1 (UTC 2008-12-04)

    Аудио
    Идентификатор : 1
    Формат : AC-3
    Формат/Информация : Audio Coding 3
    Расширение режима : CM (complete main)
    Идентификатор кодека : 2000
    Продолжительность : 1 ч. 45 м.
    Вид битрейта : Постоянный
    Битрейт : 384 Кбит/сек
    Каналы : 6 каналов
    Расположение каналов : Front: L C R, Side: L R, LFE
    Частота : 48,0 КГц
    Битовая глубина : 16 бит
    Метод сжатия : С потерями
    Размер потока : 288 Мбайт (19%)
    Выравнивание : Разделение по промежуткам
    Продолжительность промежутка : 42 мс. (1,00 видеокадр)
    Время предзагрузки промежутка : 500 ms

    Скриншоты


    Релиз от:
    Залил: AleksSin
    Размер: 1.46 GB (1565337600 Bytes)

    Тайное дитя / Tyskungen / The Hidden Child (2013) HDRip от BitTracker | L1 скачать через торрент бесплатно
    загрузка...
    Рейтинг →
     (голосов: 1, оценка 3/5, голосовать можно 1 раз )

    Другие торренты по теме:



      Комментарии (0):

      Информация

      Информация

        Посетители, находящиеся в группе Гости, не могут оставлять комментарии в данной новости.

        ↓ Меню



        ↓ Опрос

        А Вы добавили сайт в закладки?
        Да
        Не


        Top 10 за неделю (Фильмы)