.
Авторизация | Регистрация
Хочешь лучшие торренты? Добавь свой email!
Добавить
» » P.S. Я люблю тебя / P.S. I Love You (2007) BDRip | D скачать через торрент бесплатно




    P.S. Я люблю тебя / P.S. I Love You (2007) BDRip | D скачать через торрент бесплатно

    Опубликовал: Админ | Дата: 27-02-2015, 11:09 | Просмотров: 343



    Информация о фильме
    Название: P.S. Я люблю тебя
    Оригинальное название: P.S. I Love You
    Год выхода: 2007
    Жанр: драма, мелодрама
    Режиссер: Ричард ЛаГравенес / Richard LaGravenese
    В ролях: Хилари Суэнк, Джерард Батлер, Кэти Бейтс, Джина Гершон, Лиза Кудроу, Джеффри Дин Морган, Джеймс Марстерс, Гарри Конник мл., Нелли МакКэй, Кристофер Уэйлен, Дин Уинтерс, Энн Кент

    О фильме:
    Он и она созданы друг для друга, две половинки одного целого, которые, прожив душа в душу долгую счастливую жизнь могли бы спокойно умереть в один день. Но судьба распоряжается иначе, и она очень скоро остается вдовой. Но даже после смерти муж не оставляет свою любимую жену: заблаговременно он оставил ей 7 посланий, которые должны помочь ей пережить утрату. Каждое заканчивается постскриптумом Я люблю тебя.



    Страна: США
    Продолжительность: 02:06:02
    Перевод: Профессиональный (дублированный) лицензия

    Файл
    Кодек: XviD / AC3
    Качество: BDRip
    Видео: XviD build 65, 704x400 (16:9), 23.976 fps, ~1270 kbps avg, 0.188 bit/pixel
    Звук: 48 kHz, AC3 Dolby Digital, 3/2 (L,C,R,l,r) LFE ch, ~384 kbps avg (Dub)

    Скриншоты
    MediaInfo
    General
    Complete name : DP.S.I.Love.You.2007.Dub.BDRip.1,46Gb.XviD.AC3.avi
    Format : AVI
    Format/Info : Audio Video Interleave
    File size : 1.46 GiB
    Duration : 2h 6mn
    Overall bit rate : 1 663 Kbps
    Writing application : VirtualDubModRus 1.5.10.2 (build 2542/release)
    Writing library : VirtualDubMod build 2542/release

    Video
    ID : 0
    Format : MPEG-4 Visual
    Format profile : Advanced Simple@L5
    Format settings, BVOP : 1
    Format settings, QPel : No
    Format settings, GMC : No warppoints
    Format settings, Matrix : Custom
    Codec ID : XVID
    Codec ID/Hint : XviD
    Duration : 2h 6mn
    Bit rate : 1 270 Kbps
    Width : 704 pixels
    Height : 400 pixels
    Display aspect ratio : 16:9
    Frame rate : 23.976 fps
    Color space : YUV
    Chroma subsampling : 4:2:0
    Bit depth : 8 bits
    Scan type : Progressive
    Compression mode : Lossy
    Bits/(Pixel*Frame) : 0.188
    Stream size : 1.12 GiB (76%)
    Writing library : XviD 65

    Audio
    ID : 1
    Format : AC-3
    Format/Info : Audio Coding 3
    Mode extension : CM (complete main)
    Format settings, Endianness : Big
    Codec ID : 2000
    Duration : 2h 5mn
    Bit rate mode : Constant
    Bit rate : 384 Kbps
    Channel(s) : 6 channels
    Channel positions : Front: L C R, Side: L R, LFE
    Sampling rate : 48.0 KHz
    Bit depth : 16 bits
    Compression mode : Lossy
    Stream size : 346 MiB (23%)
    Alignment : Split accross interleaves
    Interleave, duration : 42 ms (1.00 video frame)
    Interleave, preload duration : 500 ms
    Title : Dub

    Размер: 1.46 GB (1571735552 Bytes)

    P.S. Я люблю тебя / P.S. I Love You (2007) BDRip | D скачать через торрент бесплатно
    загрузка...
    Рейтинг →
     (голосов: 1, оценка 5/5, голосовать можно 1 раз )

    Другие торренты по теме:

  • Мой партнер / Na-eui PS pa-teu-neo / My PS Partner (2012) BDRip 1080p от MediaClub
  • Мой партнёр / My PS Partner (2012) HDRip | L2


    • Комментарии (0):

      Информация

      Информация

        Посетители, находящиеся в группе Гости, не могут оставлять комментарии в данной новости.

        ↓ Меню



        ↓ Опрос

        А Вы добавили сайт в закладки?
        Да
        Не


        Top 10 за месяц (Фильмы)