.
Авторизация | Регистрация
» » Виртуальность / Виртуозность / Virtuosity (1995) BDRemux 1080p от MediaClub | P, P2, A скачать через торрент бесплатно




    Виртуальность / Виртуозность / Virtuosity (1995) BDRemux 1080p от MediaClub | P, P2, A скачать через торрент бесплатно

    Опубликовал: Админ | Дата: 27-02-2015, 11:09 | Просмотров: 275



    Информация о фильме
    Название: Виртуальность (Виртуозность, Виртуальный убийца)
    Оригинальное название: Virtuosity
    Год выпуска: 1995
    Жанр: Боевик, фантастика
    Режиссер: Бретт Леонард
    В ролях: Дензел Вашингтон, Келли Линч, Расселл Кроу, Стивен Спинелла, Уильям Форсайт, Луиз Флетчер, Уильям Фихтнер, Костас Мэндилор, Кевин Дж. О’Коннор, Кейли Куоко

    Описание: Его имя Сид 6.7. Он создан из двухсот отборных подонков, негодяев и психопатов, наделен интеллектом и хитростью самых знаменитых серийных убийц в истории человечества. Сид 6,7 был специально придуман, как совершенное воплощение зла и жестокости, для особой компьютерной программы, помогающей полицейским ловить преступников. Но случилось непоправимое. Сиду удалось сбежать из кибернетического пространства в реальный мир. Идеальный преступник был на свободе и жаждал преподать людям страшный урок… Единственным человеком, который встал на пути компьютерного садиста, оказался полицейский по имени Паркер Барнис. Но офицеру Барнису всегда приходилось иметь дело с бандитами из плоти и крови. Сможет ли он совладать с неуязвимым Сидом 6,7?..




    Страна: США
    Студия: Paramount Pictures
    Продолжительность: 01:45:54
    Перевод: Профессиональный многоголосый, профессиональный двухголосый, авторский одноголосый

    Файл
    Качество: Blu-Ray Remux 1080p
    Видео: MPEG-4 AVC, 33966 Кбит/с, 1920x1080, 23.976 кадр/с
    Аудио #1: Русский (AC3, 2 ch, 192 Кбит/с) / Профессиональный многоголосый (СТС)
    Аудио #2: Русский (AC3, 2 ch, 192 Кбит/с) / Профессиональный двухголосый (НТВ )
    Аудио #3: Русский (AC3, 2 ch, 192 Кбит/с) / Профессиональный двухголосый (Nord)
    Аудио #4: Русский (AC3, 6 ch, 448 Кбит/с) / Авторский одноголосый (Ю. Живов)
    Аудио #5: Английский (DTS-HD MA, 6 ch, 4506 Кбит/с)
    Субтитры: Английские

    Скриншоты


    О релизе
    За Blu-Ray спасибо: BitHQ
    За русские дороги спасибо: Rutrecker
    Синхронизация аудио: kaspr
    MI
    Общее
    Уникальный идентификатор : 198878674659874480896169378021732948820 (0x959EA3B5243946A6983E6DAE7E269B54)
    Полное имя : D:Mои раздачиVirtuosity.1995.BDRemux.(1080p)-MediaClub.mkv
    Формат : Matroska
    Версия формата : Version 4 / Version 2
    Размер файла : 29,0 Гбайт
    Продолжительность : 1 ч. 45 м.
    Режим общего битрейта : Переменный
    Общий поток : 39,2 Мбит/сек
    Название фильма : MediaClub-kaspr
    Дата кодирования : UTC 2013-10-15 19:26:27
    Программа кодирования : mkvmerge v6.1.0 (;Old Devil;) built on Mar 4 2013 09:10:42
    Библиотека кодирования : libebml v1.3.0 libmatroska v1.4.0

    Видео
    Идентификатор : 1
    Формат : AVC
    Формат/Информация : Advanced Video Codec
    Профиль формата : High@L4.1
    Параметр CABAC формата : Да
    Параметр ReFrames формата : 4 кадра
    Идентификатор кодека : V_MPEG4/ISO/AVC
    Продолжительность : 1 ч. 45 м.
    Вид битрейта : Переменный
    Максимальный битрейт : 35,0 Мбит/сек
    Ширина : 1920 пикселей
    Высота : 1080 пикселей
    Соотношение сторон : 16:9
    Режим частоты кадров : Постоянный
    Частота кадров : 23,976 кадра/сек
    Цветовое пространство : YUV
    Субдискретизация насыщенности : 4:2:0
    Битовая глубина : 8 бит
    Тип развёртки : Прогрессивная
    Заголовок : MediaClub-kaspr
    Default : Да
    Forced : Да

    Аудио #1
    Идентификатор : 2
    Формат : AC-3
    Формат/Информация : Audio Coding 3
    Расширение режима : CM (complete main)
    Параметр Endianness формата : Big
    Идентификатор кодека : A_AC3
    Продолжительность : 1 ч. 45 м.
    Вид битрейта : Постоянный
    Битрейт : 192 Кбит/сек
    Каналы : 2 канала
    Расположение каналов : Front: L R
    Частота : 48,0 КГц
    Битовая глубина : 16 бит
    Метод сжатия : С потерями
    Размер потока : 145 Мбайт (0%)
    Заголовок : STS
    Язык : Russian
    Default : Да
    Forced : Да

    Аудио #2
    Идентификатор : 3
    Формат : AC-3
    Формат/Информация : Audio Coding 3
    Расширение режима : CM (complete main)
    Параметр Endianness формата : Big
    Идентификатор кодека : A_AC3
    Продолжительность : 1 ч. 45 м.
    Вид битрейта : Постоянный
    Битрейт : 192 Кбит/сек
    Каналы : 2 канала
    Расположение каналов : Front: L R
    Частота : 48,0 КГц
    Битовая глубина : 16 бит
    Метод сжатия : С потерями
    Размер потока : 145 Мбайт (0%)
    Заголовок : NTV
    Язык : Russian
    Default : Нет
    Forced : Нет

    Аудио #3
    Идентификатор : 4
    Формат : AC-3
    Формат/Информация : Audio Coding 3
    Расширение режима : CM (complete main)
    Параметр Endianness формата : Big
    Идентификатор кодека : A_AC3
    Продолжительность : 1 ч. 45 м.
    Вид битрейта : Постоянный
    Битрейт : 192 Кбит/сек
    Каналы : 2 канала
    Расположение каналов : Front: L R
    Частота : 48,0 КГц
    Битовая глубина : 16 бит
    Метод сжатия : С потерями
    Размер потока : 145 Мбайт (0%)
    Заголовок : Nord
    Язык : Russian
    Default : Нет
    Forced : Нет

    Аудио #4
    Идентификатор : 5
    Формат : AC-3
    Формат/Информация : Audio Coding 3
    Расширение режима : CM (complete main)
    Параметр Endianness формата : Big
    Идентификатор кодека : A_AC3
    Продолжительность : 1 ч. 45 м.
    Вид битрейта : Постоянный
    Битрейт : 448 Кбит/сек
    Каналы : 6 каналов
    Расположение каналов : Front: L C R, Side: L R, LFE
    Частота : 48,0 КГц
    Битовая глубина : 16 бит
    Метод сжатия : С потерями
    Размер потока : 339 Мбайт (1%)
    Заголовок : Jivov
    Язык : Russian
    Default : Нет
    Forced : Нет

    Аудио #5
    Идентификатор : 6
    Формат : DTS
    Формат/Информация : Digital Theater Systems
    Профиль формата : MA / Core
    Режим : 16
    Параметр Endianness формата : Big
    Идентификатор кодека : A_DTS
    Продолжительность : 1 ч. 45 м.
    Вид битрейта : Переменный
    Битрейт : Неизвестно / 1509 Кбит/сек
    Каналы : 6 каналов
    Расположение каналов : Front: L C R, Side: L R, LFE
    Частота : 48,0 КГц
    Битовая глубина : 24 бит
    Метод сжатия : Без потерь / Lossy
    Язык : English
    Default : Нет
    Forced : Нет

    Текст
    Идентификатор : 7
    Формат : UTF-8
    Идентификатор кодека : S_TEXT/UTF8
    Идентификатор кодека/Информация : UTF-8 Plain Text
    Язык : English
    Default : Нет
    Forced : Нет

    Меню
    00:00:00.000 : en:Chapter 01
    00:07:48.843 : en:Chapter 02
    00:12:16.235 : en:Chapter 03
    00:16:12.596 : en:Chapter 04
    00:18:01.371 : en:Chapter 05
    00:21:19.194 : en:Chapter 06
    00:25:11.384 : en:Chapter 07
    00:31:30.930 : en:Chapter 08
    00:35:41.472 : en:Chapter 09
    00:40:19.250 : en:Chapter 10
    00:48:51.136 : en:Chapter 11
    00:52:28.061 : en:Chapter 12
    00:56:36.518 : en:Chapter 13
    01:02:41.883 : en:Chapter 14
    01:06:55.136 : en:Chapter 15
    01:12:33.849 : en:Chapter 16
    01:20:54.516 : en:Chapter 17
    01:27:40.380 : en:Chapter 18
    01:32:57.071 : en:Chapter 19
    01:38:44.877 : en:Chapter 20

    Релиз:
    Залил: kaspr
    Размер: 28.99 GB (31132094939 Bytes)

    Виртуальность / Виртуозность / Virtuosity (1995) BDRemux 1080p от MediaClub | P, P2, A скачать через торрент бесплатно
    загрузка...
    Рейтинг →
     (голосов: 1, оценка 4/5, голосовать можно 1 раз )

    Другие торренты по теме:

  • Сборник - Виртуальная любовь (2013) MP3 торрент скачать бесплатно
  • BBC: Виртуальная революция / BBC: The Virtual Revolution (2010) HDTVRip-AVC торрент скачать бесплатно
  • Виртуальность / Виртуозность / Virtuosity (1995) HDTVRip от Leon-masl | A, P2 торрент скачать бесплатно
  • Виртуальные Радости - Подшивка номеров (2001-2013) DJVU торрент скачать бесплатно
  • Виртуальные Радости - Подшивка номеров (2001-2013) DJVU торрент скачать бесплатно
  • Виртуальные Радости - Подшивка номеров (2000-2013) DJVU торрент скачать бесплатно
  • Виртуальность / Virtuosity (1995) BDRip от MediaClub | P, P2, A скачать через торрент бесплатно
  • Виртуальность / Виртуозность / Virtuosity (1995) BDRip 720p от MediaClub | P, P2, A скачать через торрент бесплатно


    • Комментарии (0):

      Информация

      Информация

        Посетители, находящиеся в группе Гости, не могут оставлять комментарии в данной новости.

        ↓ Меню



        ↓ Опрос

        А Вы добавили сайт в закладки?
        Да
        Не


        Top 10 за неделю (Фильмы)