.
Авторизация | Регистрация
» » Измена / Breach (2007) HDRip | D скачать через торрент бесплатно




    Измена / Breach (2007) HDRip | D скачать через торрент бесплатно

    Опубликовал: Админ | Дата: 27-02-2015, 11:09 | Просмотров: 343



    Информация о фильме
    Название: Измена
    Оригинальное название: Breach
    Год выхода: 2007
    Жанр: триллер, драма, криминал, биография, история
    Режиссер: Билли Рэй / Billy Ray
    В ролях: Крис Купер, Райан Филипп, Лора Линни, Каролин Даверна, Гэри Коул, Деннис Хэйсберт, Кэтлин Куинлан

    О фильме:
    Фильм основан на реальных событиях. Молодой Эрик О’Нейл направлен на службу в новую дивизию, созданную в рамках ФБР. Эрик счастлив — он мечтает стать лучшим из агентов, когда-либо служивших в федеральных силах США. Однако довольно быстро ему становится ясна истинная причина этого назначения.


    Официальный сайт

    Страна: США
    Студия: Universal Pictures
    Продолжительность: 01:50:05
    Перевод: Профессиональный (дублированный)

    Файл
    Кодек: XviD / MP3
    Качество: HDRip Исходник: HD-DVDRip, 1080p
    Видео: 656x352 (1.86:1), 23.976 fps, XviD build 47 ~809 kbps avg, 0.15 bit/pixel
    Звук: 48 kHz, MPEG Layer 3, 2 ch, ~128.00 kbps avg

    Скриншоты
    MediaInfo
    General
    Complete name : /media/Breach.2007.hdrip_745_teko.avi
    Format : AVI
    Format/Info : Audio Video Interleave
    File size : 745 MiB
    Duration : 1h 50mn
    Overall bit rate : 946 Kbps
    Writing application : VirtualDubMod 1.5.10.2 (build 2540/release)
    Writing library : VirtualDubMod build 2540/release

    Video
    ID : 0
    Format : MPEG-4 Visual
    Format profile : Advanced Simple@L5
    Format settings, BVOP : 1
    Format settings, QPel : No
    Format settings, GMC : No warppoints
    Format settings, Matrix : Default (MPEG)
    Codec ID : XVID
    Codec ID/Hint : XviD
    Duration : 1h 50mn
    Bit rate : 809 Kbps
    Width : 656 pixels
    Height : 352 pixels
    Display aspect ratio : 1.85:1
    Frame rate : 23.976 fps
    Color space : YUV
    Chroma subsampling : 4:2:0
    Bit depth : 8 bits
    Scan type : Progressive
    Compression mode : Lossy
    Bits/(Pixel*Frame) : 0.146
    Stream size : 637 MiB (86%)
    Writing library : XviD 1.2.0.dev47 (UTC 2006-11-01)

    Audio
    ID : 1
    Format : MPEG Audio
    Format version : Version 1
    Format profile : Layer 3
    Codec ID : 55
    Codec ID/Hint : MP3
    Duration : 1h 49mn
    Bit rate mode : Constant
    Bit rate : 128 Kbps
    Channel(s) : 2 channels
    Sampling rate : 48.0 KHz
    Compression mode : Lossy
    Stream size : 101 MiB (14%)
    Alignment : Aligned on interleaves
    Interleave, duration : 42 ms (1.00 video frame)
    Interleave, preload duration : 504 ms
    Writing library : LAME3.98r
    Encoding settings : -m s -V 4 -q 2 -lowpass 17 -b 128

    Размер: 745.15 MB (781350912 Bytes)

    Измена / Breach (2007) HDRip | D скачать через торрент бесплатно
    загрузка...
    Рейтинг →
     (голосов: 1, оценка 3/5, голосовать можно 1 раз )

    Другие торренты по теме:

  • Цена измены / Derailed (2005) HDRip от Scarabey | D P2 | Режиссерская версия торрент скачать бесплатно
  • Познавательное ТВ: Измена в Ватикане - Заговор против христианства (2013) HDTVRip торрент скачать бесплатно
  • Познавательное ТВ: Измена в Ватикане - Заговор против христианства (2013) HDTV 720p торрент скачать бесплатно
  • Любовь, измена и воровство / Love, Cheat And Steal (1993) HDTVRip от ClubTorrent | P торрент скачать бесплатно
  • Познавательное ТВ: Измена в Ватикане - Заговор против христианства (2013) HDRip торрент скачать бесплатно
  • Измена / Breach (2007) HDDVDRip-AVC от MediaClub торрент скачать бесплатно
  • Магнат - Город Измены (2004) MP3 торрент скачать бесплатно
  • Любовь, измена и воровство / Love, Cheat And Steal (1993) HDTVRip-AVC от MediaClub | P2 торрент скачать бесплатно


    • Комментарии (0):

      Информация

      Информация

        Посетители, находящиеся в группе Гости, не могут оставлять комментарии в данной новости.

        ↓ Меню



        ↓ Опрос

        А Вы добавили сайт в закладки?
        Да
        Не


        Top 10 за неделю (Фильмы)