.
Авторизация | Регистрация
Хочешь лучшие торренты? Добавь свой email!
Добавить
» » Полиция Майами: Отдел нравов / Miami Vice (1984-1990) DVDRip - от NovaLan скачать через торрент бесплатно




    Полиция Майами: Отдел нравов / Miami Vice (1984-1990) DVDRip - от NovaLan скачать через торрент бесплатно

    Опубликовал: Админ | Дата: 27-02-2015, 11:09 | Просмотров: 511



    Страна: США
    Производство: Michael Mann Productions, Universal TV
    Жанр: Боевик, триллер, драма, криминал
    Год выпуска: 1984-1990

    Продолжительность: 3 х ~ 01:37:00, 108 х ~ 00:49:00


    Перевод: Профессиональный многоголосый

    Оригинальная аудиодорожка: Английская

    Cубтитры: Нет


    Режиссер: Джон Николелла, Ричард Комптон, Леон Ичасо


    В ролях: Дон Джонсон, Филип Майкл Томас, Сандра Сантьяго, Оливия Браун, Майкл Тэлботт, Эдвард Джеймс Олмос, Джон Дил, Мартин Ферреро, Хулио Оскар Мечосо, Чарли Барнетт, Белинда Монтгомери, Шина Истон, Пэрррис Бакнер, Марио Эрнесто Санчез, Марк Маколей, Джо Хесс, Шэйн Ле Мар, Грегори Сьерра, Нед Эйз




    Описание: Сериал рассказывает о нелегкой работе полицейских Майами. Санни Крокетт и его напарник Рикардо Таббс расследуют жестокие убийства, изнасилования и ограбления. Полицейские всегда находят преступников и защищают слабых.

    Исходник: DVD9 R2

    Тип релиза: DVDRip

    Контейнер: AVI


    Видео: 640x480 (1.33:1), 23.976 fps, XviD ~1018 kbps avg, 0.14 bit/pixel
    Аудио: #1: 48 kHz, AC3 2.0 ~192.00 kbps avg (RUS)
    Аудио: #2: 48 kHz, AC3 6.0 ~448.00 kbps avg (ENG)



    MediaInfo
    Общее
    Полное имя : D:1АААПолиция Майами1 сезон4 серия.avi
    Формат : AVI
    Формат/Информация : Audio Video Interleave
    Размер файла : 587 Мбайт
    Продолжительность : 49 м.
    Общий поток : 1673 Кбит/сек
    Программа кодирования : VirtualDubMod 1.5.10.2 (build 2540/release)
    Библиотека кодирования : VirtualDubMod build 2540/release

    Видео
    Идентификатор : 0
    Формат : MPEG-4 Visual
    Профиль формата : Advanced Simple@L5
    Параметр BVOP формата : 2
    Параметр QPel формата : Нет
    Параметр GMC формата : Без точки перехода
    Параметр матрицы формата : Default (MPEG)
    Режим смешивания : Сжатый битовый поток
    Идентификатор кодека : XVID
    Идентификатор кодека/Подсказка : XviD
    Продолжительность : 49 м.
    Битрейт : 1019 Кбит/сек
    Ширина : 640 пикселей
    Высота : 480 пикселей
    Соотношение сторон : 4:3
    Частота кадров : 23,976 кадра/сек
    Цветовое пространство : YUV
    Субдискретизация насыщенности : 4:2:0
    Битовая глубина : 8 бит
    Тип развёртки : Прогрессивная
    Метод сжатия : С потерями
    Бит/(Пиксели*Кадры) : 0.138
    Размер потока : 358 Мбайт (61%)
    Библиотека кодирования : XviD 1.2.1 (UTC 2008-12-04)

    Аудио #1
    Идентификатор : 1
    Формат : AC-3
    Формат/Информация : Audio Coding 3
    Расширение режима : CM (complete main)
    Параметр Endianness формата : Big
    Идентификатор кодека : 2000
    Продолжительность : 49 м.
    Вид битрейта : Постоянный
    Битрейт : 192 Кбит/сек
    Каналы : 2 канала
    Расположение каналов : Front: L R
    Частота : 48,0 КГц
    Битовая глубина : 16 бит
    Метод сжатия : С потерями
    Размер потока : 67,4 Мбайт (11%)
    Выравнивание : Разделение по промежуткам
    Продолжительность промежутка : 42 мс. (1,00 видеокадр)
    Время предзагрузки промежутка : 500 мс.

    Аудио #2
    Идентификатор : 2
    Формат : AC-3
    Формат/Информация : Audio Coding 3
    Расширение режима : CM (complete main)
    Параметр Endianness формата : Big
    Идентификатор кодека : 2000
    Продолжительность : 49 м.
    Вид битрейта : Постоянный
    Битрейт : 448 Кбит/сек
    Каналы : 6 каналов
    Расположение каналов : Front: L C R, Side: L R, LFE
    Частота : 48,0 КГц
    Битовая глубина : 16 бит
    Метод сжатия : С потерями
    Размер потока : 157 Мбайт (27%)
    Выравнивание : Разделение по промежуткам
    Продолжительность промежутка : 42 мс. (1,00 видеокадр)
    Время предзагрузки промежутка : 500 мс.







    Скриншоты




    Релиз группа:

    Автор рипа:
    Залил: YArl
    Размер: 66.35 GB (71245178880 Bytes)

    Полиция Майами: Отдел нравов / Miami Vice (1984-1990) DVDRip - от NovaLan скачать через торрент бесплатно
    загрузка...
    Рейтинг →
     (голосов: 1, оценка 3/5, голосовать можно 1 раз )

    Другие торренты по теме:

  • Полиция Майами: Отдел нравов / Miami Vice (2006) BDRip 1080p
  • Полиция майами - Отдел Нравов / Miami Vice (1984-1989) DVDRip
  • GTA / Grand Theft Auto: San Andreas - Полиция майами Отдел нравов (2005) PC | RePack от SmartPack скачать через торрент бесплатно
  • Полиция Майами: Отдел нравов / Miami Vice (2006) BDRip 1080p от Переулка Переводмана | Unrated Directors Edition | D, P, P2, A


    • Комментарии (0):

      Информация

      Информация

        Посетители, находящиеся в группе Гости, не могут оставлять комментарии в данной новости.

        ↓ Меню



        ↓ Опрос

        А Вы добавили сайт в закладки?
        Да
        Не


        Top 10 за месяц (Фильмы)