.
Авторизация | Регистрация
» » Сверхъестественное / Supernatural (2013) HDTVRip | Sub скачать через торрент бесплатно




    Сверхъестественное / Supernatural (2013) HDTVRip | Sub скачать через торрент бесплатно

    Опубликовал: Админ | Дата: 27-02-2015, 11:09 | Просмотров: 333

    Сверхъестественное / Supernatural

    Год выпуска: 2013
    Страна: США
    Жанр: ужасы, фэнтези, триллер, драма, детектив
    Продолжительность: 0:42:16

    Перевод: нет
    Субтитры: русские, английские
    Режиссёр: Роберт Сингер, Филип Сгриккиа, Ким Мэннерс

    В ролях: Джаред Падалеки, Дженсен Эклс, Джим Бивер, Миша Коллинз, Марк Шеппард, Марк Пеллегрино, Женевьев Падалеки, Кэти Кэссиди, Джеймс Патрик Стюарт, Саманта Феррис

    Описание: Сериал рассказывает о приключениях братьев Сэма и Дина Винчестеров, которые путешествуют по Соединённым Штатам на чёрном автомобиле Chevrolet Impala 1967 года, расследуют паранормальные явления, многие из которых основаны на американских городских легендах и фольклоре, и сражаются с

    Сэмпл: http://multi-up.com/911968

    Качество: HDTVRip
    Формат: AVI
    Видео кодек: XVID
    Аудио кодек: MP3
    Видео: Xvid 624x352 23.976fps
    Аудио: MP3 48000Hz stereo 128kbps
    MediaInfo

    General
    Complete name : H:VideoСериалыСВЕРХЪЕСТЕСТВЕННОЕ9 СЕЗОН ENGS09E01Supernatural.S09E01.HDTV.avi
    Format : AVI
    Format/Info : Audio Video Interleave
    File size : 349 MiB
    Duration : 42mn 15s
    Overall bit rate : 1 155 Kbps
    Writing application : VirtualDubMod 1.5.10.2 (build 2540/release)
    Writing library : VirtualDubMod build 2540/release

    Video
    ID : 0
    Format : MPEG-4 Visual
    Format profile : Advanced Simple@L5
    Format settings, BVOP : 2
    Format settings, QPel : No
    Format settings, GMC : No warppoints
    Format settings, Matrix : Default (H.263)
    Muxing mode : Packed bitstream
    Codec ID : XVID
    Codec ID/Hint : XviD
    Duration : 42mn 15s
    Bit rate : 1 017 Kbps
    Width : 624 pixels
    Height : 352 pixels
    Display aspect ratio : 16:9
    Frame rate : 23.976 fps
    Color space : YUV
    Chroma subsampling : 4:2:0
    Bit depth : 8 bits
    Scan type : Progressive
    Compression mode : Lossy
    Bits/(Pixel*Frame) : 0.193
    Stream size : 308 MiB (88%)
    Writing library : XviD 64

    Audio
    ID : 1
    Format : MPEG Audio
    Format version : Version 1
    Format profile : Layer 3
    Mode : Joint stereo
    Codec ID : 55
    Codec ID/Hint : MP3
    Duration : 42mn 15s
    Bit rate mode : Constant
    Bit rate : 128 Kbps
    Channel count : 2 channels
    Sampling rate : 48.0 KHz
    Compression mode : Lossy
    Stream size : 38.7 MiB (11%)
    Alignment : Aligned on interleaves
    Interleave, duration : 42 ms (1.00 video frame)
    Interleave, preload duration : 504 ms

    Скриншоты


    Размер: 698.28 MB (732197231 Bytes)

    Сверхъестественное / Supernatural (2013) HDTVRip | Sub скачать через торрент бесплатно
    загрузка...
    Рейтинг →
     (голосов: 1, оценка 4/5, голосовать можно 1 раз )

    Другие торренты по теме:

  • Сверхъестественное / Supernatural: The Animation (2011) BDRip | AniFilm торрент скачать бесплатно
  • Painkiller: Сверхъестественное / Painkiller: Supernatural (2012) PC торрент скачать бесплатно
  • Сверхъестественное / Supernatural (2010-2011) DVDRip | Рен-ТВ торрент скачать бесплатно
  • Сверхъестественное / Supernatural (2012) WEB-DLRip | LostFilm торрент скачать бесплатно
  • Сверхъестественное / Supernatural (2013) HDTVRip | Kerob торрент скачать бесплатно
  • Сверхъестественное / Supernatural (2013) HDTVRip | DreamRecords скачать через торрент бесплатно
  • Сверхъестественное / Supernatural (2005) HDRip от Youtracker | D | КПК скачать через торрент бесплатно
  • Сверхъестественное / Supernatural (2013) WEB-DLRip | LostFilm скачать через торрент бесплатно


    • Комментарии (0):

      Информация

      Информация

        Посетители, находящиеся в группе Гости, не могут оставлять комментарии в данной новости.

        ↓ Меню



        ↓ Опрос

        А Вы добавили сайт в закладки?
        Да
        Не


        Top 10 за неделю (Фильмы)