.
Авторизация | Регистрация
Хочешь лучшие торренты? Добавь свой email!
Добавить
» » Призрачный патруль / R.I.P.D. (2013) BDRip 720p от MULTIBITS | iTunes торрент скачать бесплатно




    Призрачный патруль / R.I.P.D. (2013) BDRip 720p от MULTIBITS | iTunes торрент скачать бесплатно

    Опубликовал: Админ | Дата: 27-02-2015, 11:09 | Просмотров: 264



    Информация о фильме
    Название: Призрачный патруль
    Оригинальное название: R.I.P.D.
    Год выхода: 2013
    Жанр: комедия, фантастика, боевик
    Режиссер: Роберт Швентке
    В ролях: Райан Рейнольдс, Джефф Бриджес, Кевин Бейкон, Мэри-Луиз Паркер, Стефани Зостак, Роберт Неппер, Мариса Миллер, Джеймс Хонг, Майк О’Мэлли, Девин Рэтрей

    О фильме:
    Молодой полицейский на пике своей карьеры, во время очередного захвата банды преступников погибает. Попав в потусторонний мир он узнает что и там нет покоя, с учетом его способностей ему предлагают работу в ПП. Это отряд по борьбе с всякой нечистью, духами и призраками, состоящий в организации R.I.P.D. Условие такое, целых сто лет он должен горбатится в команде бессмертных полицейских, выхода нет он соглашается. В напарники ему достается вредный коп старшего возраста, который торчит там еще с времен дикого запада, эпохи ковбоев и бандитов. Работа не простая, духи и разные бежавшие твари могут скрываться даже в мире живых, иногда переселившись в людские тела наши копы делают свое дела и в нашем мире, им все под силу, они же элита.



    Выпущено: США / 20th Century Fox
    Продолжительность: 01:35:55
    Озвучивание: Дублированное iTunes Russian
    Дополнительно: Сохранены оригинальные чаптеры

    Файл
    Формат: MKV (x264)
    Качество: BDRip 720p
    Видео: 5003 Кбит/c, 1280x544
    Звук: AC3, 384 Кбит/c (6 ch)

    Семпл



    MI
    Format : Matroska
    Format version : Version 4 / Version 2
    File size : 3.61 GiB
    Duration : 1h 35mn
    Overall bit rate : 5 390 Kbps
    Encoded date : UTC 2013-10-17 12:56:03
    Writing application : mkvmerge v6.2.0 (;Promised Land;) built on Apr 28 2013 12:22:01
    Writing library : libebml v1.3.0 libmatroska v1.4.0

    Video
    ID : 1
    Format : AVC
    Format/Info : Advanced Video Codec
    Format profile : High@L4.1
    Format settings, CABAC : Yes
    Format settings, ReFrames : 9 frames
    Codec ID : V_MPEG4/ISO/AVC
    Duration : 1h 35mn
    Bit rate : 5 003 Kbps
    Width : 1 280 pixels
    Height : 544 pixels
    Display aspect ratio : 2.35:1
    Frame rate mode : Constant
    Frame rate : 23.976 fps
    Color space : YUV
    Chroma subsampling : 4:2:0
    Bit depth : 8 bits
    Scan type : Progressive
    Bits/(Pixel*Frame) : 0.300
    Stream size : 3.28 GiB (91%)
    Writing library : x264 core 135 r2345 f0c1c53
    Encoding settings : cabac=1 / ref=9 / deblock=1:-3:-3 / analyse=0x3:0x113 / me=umh / subme=10 / psy=1 / psy_rd=1.00:0.05 / mixed_ref=1 / me_range=32 / chroma_me=1 / trellis=2 / 8x8dct=1 / cqm=0 / deadzone=21,11 / fast_pskip=0 / chroma_qp_offset=-2 / threads=8 / lookahead_threads=1 / sliced_threads=0 / nr=0 / decimate=1 / interlaced=0 / bluray_compat=0 / constrained_intra=0 / bframes=5 / b_pyramid=2 / b_adapt=2 / b_bias=0 / direct=3 / weightb=1 / open_gop=0 / weightp=2 / keyint=250 / keyint_min=23 / scenecut=40 / intra_refresh=0 / rc=2pass / mbtree=0 / bitrate=5003 / ratetol=1.0 / qcomp=0.70 / qpmin=0 / qpmax=69 / qpstep=4 / cplxblur=20.0 / qblur=0.5 / ip_ratio=1.40 / pb_ratio=1.30 / aq=2:0.90
    Language : English
    Default : No
    Forced : No

    Audio
    ID : 2
    Format : AC-3
    Format/Info : Audio Coding 3
    Mode extension : CM (complete main)
    Format settings, Endianness : Big
    Codec ID : A_AC3
    Duration : 1h 35mn
    Bit rate mode : Constant
    Bit rate : 384 Kbps
    Channel count : 6 channels
    Channel positions : Front: L C R, Side: L R, LFE
    Sampling rate : 48.0 KHz
    Bit depth : 16 bits
    Compression mode : Lossy
    Stream size : 263 MiB (7%)
    Language : Russian
    Default : Yes
    Forced : No

    Menu
    00:00:00.000 : en:00:00:00.000
    00:03:57.112 : en:00:03:57.112
    00:09:13.136 : en:00:09:13.136
    00:14:30.578 : en:00:14:30.578
    00:17:58.411 : en:00:17:58.411
    00:22:30.599 : en:00:22:30.599
    00:27:09.503 : en:00:27:09.503
    00:33:33.511 : en:00:33:33.511
    00:38:46.157 : en:00:38:46.157
    00:43:27.647 : en:00:43:27.647
    00:46:31.747 : en:00:46:31.747
    00:52:04.038 : en:00:52:04.038
    00:55:52.099 : en:00:55:52.099
    01:02:15.982 : en:01:02:15.982
    01:07:01.100 : en:01:07:01.100
    01:10:35.690 : en:01:10:35.690
    01:13:16.309 : en:01:13:16.309
    01:17:52.126 : en:01:17:52.126
    01:23:00.934 : en:01:23:00.934
    01:27:27.909 : en:01:27:27.909
    Скриншоты


    Релиз от:
    Размер: 3.61 GB (3877484811 Bytes)

    Призрачный патруль / R.I.P.D. (2013) BDRip 720p от MULTIBITS | iTunes торрент скачать бесплатно
    загрузка...
    Рейтинг →
     (голосов: 1, оценка 3/5, голосовать можно 1 раз )

    Другие торренты по теме:



      Комментарии (0):

      Информация

      Информация

        Посетители, находящиеся в группе Гости, не могут оставлять комментарии в данной новости.

        ↓ Меню



        ↓ Опрос

        А Вы добавили сайт в закладки?
        Да
        Не


        Top 10 за месяц (Фильмы)