.
Авторизация | Регистрация
» » Прирожденные убийцы / Natural Born Killers (1994) DVD9 DVD5 | P, A | Коллекционное издание скачать через торрент бесплатно




    Прирожденные убийцы / Natural Born Killers (1994) DVD9 DVD5 | P, A | Коллекционное издание скачать через торрент бесплатно

    Опубликовал: Админ | Дата: 27-02-2015, 11:09 | Просмотров: 341



    Информация о фильме
    Название: Прирожденные убийцы
    Оригинальное название: Natural Born Killers
    Год выхода: 1994
    Жанр: драма, криминал
    Режиссер: Оливер Стоун
    В ролях: Вуди Харрельсон, Джульетт Льюис, Роберт Дауни мл., Томми Ли Джонс, Том Сайзмор, Родни Дейнджерфилд, Эверетт Куинтон, Джаред Харрис, Прюитт Тэйлор Винс, Эди МакКлёрг

    О фильме:
    Пара молодых влюбленных, Меллори и Микки, словно подражая легендарным Бонни и Клайду, колесит по одноэтажной Америке и убивает всех, кто попадается им на пути. Они обожают друг друга и ненавидят все остальное человечество. Их хватают и сажают в самую свирепую кутузку.

    Однако же череда нелепых и трагических совпадений дает парочке прирожденных убийц еще один шанс поубивать всласть. И они им не преминули попользоваться на всю катушку.




    Страна: США
    Студия: Alcor Films, New Regency Pictures, Warner Bros. Pictures
    Продолжительность: 119 мин. / 01:59
    Перевод 1: профессиональный (многоголосый, закадровый)
    Перевод 2: авторский (В.Горчаков, А.Гаврилов)

    Файл
    Кодек: MPEG2
    Качество: DVD9 DVD5
    Видео: PAL 16:9 (720x576) VBR 6778 Kbps, 25.00 fps
    Звук 1: Dolby AC3, 6 ch, 48.0 KHz, 448 Kbps (П.Гланц и И.Королева; А.Гаврилов)
    Звук 2: Dolby AC3, 6 ch, 48.0 KHz, 384 Kbps (без цензуры)
    Звук 3: Dolby AC3, 2 ch, 48.0 KHz, 192 Kbps (ЛазерВидео; А.Гаврилов ранний; В.Горчаков)
    Звук 4: Dolby AC3, 2 ch, 48.0 KHz, 96 Kbps (комментарии режиссера)
    Звук 5: DTS 6 ch, 48.0 KHz, 755 Kbps (английский)
    Субтитры: русские, английские

    MediaInfo
    General
    Complete name : E:Prirogdennie.Ubiyci.1994.2DVDDVD9VIDEO_TSVTS_02_1.VOB
    Format : MPEG-PS
    File size : 1 024 MiB
    Duration : 14mn 47s
    Overall bit rate mode : Variable
    Overall bit rate : 9 677 Kbps

    Video
    ID : 224 (0xE0)
    Format : MPEG Video
    Format version : Version 2
    Format profile : Main@Main
    Format settings, BVOP : Yes
    Format settings, Matrix : Custom
    Format settings, GOP : Variable
    Duration : 14mn 47s
    Bit rate mode : Variable
    Bit rate : 6 778 Kbps
    Maximum bit rate : 7 100 Kbps
    Width : 720 pixels
    Height : 576 pixels
    Display aspect ratio : 16:9
    Frame rate : 25.000 fps
    Standard : PAL
    Color space : YUV
    Chroma subsampling : 4:2:0
    Bit depth : 8 bits
    Scan type : Interlaced
    Scan order : Top Field First
    Compression mode : Lossy
    Bits/(Pixel*Frame) : 0.654
    Time code of first frame : 00:00:00:00
    Time code source : Group of pictures t_head
    Stream size : 717 MiB (70%)

    Audio #1
    ID : 189 (0xBD)-128 (0x80)
    Format : AC-3
    Format/Info : Audio Coding 3
    Mode extension : CM (complete main)
    Format settings, Endianness : Big
    Muxing mode : DVD-Video
    Duration : 14mn 47s
    Bit rate mode : Constant
    Bit rate : 448 Kbps
    Channel count : 6 channels
    Channel positions : Front: L C R, Side: L R, LFE
    Sampling rate : 48.0 KHz
    Bit depth : 16 bits
    Compression mode : Lossy
    Delay relative to video : -80ms
    Stream size : 47.4 MiB (5%)

    Audio #2
    ID : 189 (0xBD)-129 (0x81)
    Format : AC-3
    Format/Info : Audio Coding 3
    Mode extension : CM (complete main)
    Format settings, Endianness : Big
    Muxing mode : DVD-Video
    Duration : 14mn 47s
    Bit rate mode : Constant
    Bit rate : 384 Kbps
    Channel count : 6 channels
    Channel positions : Front: L C R, Side: L R, LFE
    Sampling rate : 48.0 KHz
    Bit depth : 16 bits
    Compression mode : Lossy
    Delay relative to video : -80ms
    Stream size : 40.6 MiB (4%)

    Audio #3
    ID : 189 (0xBD)-130 (0x82)
    Format : AC-3
    Format/Info : Audio Coding 3
    Mode extension : CM (complete main)
    Format settings, Endianness : Big
    Muxing mode : DVD-Video
    Duration : 14mn 47s
    Bit rate mode : Constant
    Bit rate : 192 Kbps
    Channel count : 2 channels
    Channel positions : Front: L R
    Sampling rate : 48.0 KHz
    Bit depth : 16 bits
    Compression mode : Lossy
    Delay relative to video : -80ms
    Stream size : 20.3 MiB (2%)

    Audio #4
    ID : 189 (0xBD)-132 (0x84)
    Format : AC-3
    Format/Info : Audio Coding 3
    Mode extension : CM (complete main)
    Format settings, Endianness : Big
    Muxing mode : DVD-Video
    Duration : 14mn 47s
    Bit rate mode : Constant
    Bit rate : 96.0 Kbps
    Channel count : 2 channels
    Channel positions : Front: L R
    Sampling rate : 48.0 KHz
    Bit depth : 16 bits
    Compression mode : Lossy
    Delay relative to video : -80ms
    Stream size : 10.2 MiB (1%)

    Audio #5
    ID : 189 (0xBD)-133 (0x85)
    Format : AC-3
    Format/Info : Audio Coding 3
    Mode extension : CM (complete main)
    Format settings, Endianness : Big
    Muxing mode : DVD-Video
    Duration : 14mn 47s
    Bit rate mode : Constant
    Bit rate : 192 Kbps
    Channel count : 2 channels
    Channel positions : Front: L R
    Sampling rate : 48.0 KHz
    Bit depth : 16 bits
    Compression mode : Lossy
    Delay relative to video : -80ms
    Stream size : 20.3 MiB (2%)

    Audio #6
    ID : 189 (0xBD)-134 (0x86)
    Format : AC-3
    Format/Info : Audio Coding 3
    Mode extension : CM (complete main)
    Format settings, Endianness : Big
    Muxing mode : DVD-Video
    Duration : 14mn 47s
    Bit rate mode : Constant
    Bit rate : 448 Kbps
    Channel count : 6 channels
    Channel positions : Front: L C R, Side: L R, LFE
    Sampling rate : 48.0 KHz
    Bit depth : 16 bits
    Compression mode : Lossy
    Delay relative to video : -80ms
    Stream size : 47.4 MiB (5%)

    Audio #7
    ID : 189 (0xBD)-135 (0x87)
    Format : AC-3
    Format/Info : Audio Coding 3
    Mode extension : CM (complete main)
    Format settings, Endianness : Big
    Muxing mode : DVD-Video
    Duration : 14mn 47s
    Bit rate mode : Constant
    Bit rate : 192 Kbps
    Channel count : 2 channels
    Channel positions : Front: L R
    Sampling rate : 48.0 KHz
    Bit depth : 16 bits
    Compression mode : Lossy
    Delay relative to video : -80ms
    Stream size : 20.3 MiB (2%)

    Audio #8
    ID : 189 (0xBD)-139 (0x8B)
    Format : DTS
    Format/Info : Digital Theater Systems
    Mode : 16
    Format settings, Endianness : Big
    Muxing mode : DVD-Video
    Duration : 14mn 47s
    Bit rate mode : Constant
    Bit rate : 755 Kbps
    Channel count : 6 channels
    Channel positions : Front: L C R, Side: L R, LFE
    Sampling rate : 48.0 KHz
    Bit depth : 24 bits
    Compression mode : Lossy
    Delay relative to video : -80ms
    Stream size : 79.8 MiB (8%)

    Text #1
    ID : 189 (0xBD)-32 (0x20)
    Format : RLE
    Format/Info : Run-length encoding
    Muxing mode : DVD-Video
    Duration : 14mn 42s
    Delay relative to video : 3s 600ms

    Text #2
    ID : 189 (0xBD)-33 (0x21)
    Format : RLE
    Format/Info : Run-length encoding
    Muxing mode : DVD-Video

    Menu

    Скриншоты

    Залил: carisha
    Размер: 12.13 GB (13022072832 Bytes)

    Прирожденные убийцы / Natural Born Killers (1994) DVD9 DVD5 | P, A | Коллекционное издание скачать через торрент бесплатно
    загрузка...
    Рейтинг →
     (голосов: 1, оценка 5/5, голосовать можно 1 раз )

    Другие торренты по теме:

  • Прирожденные убийцы / Natural Born Killers (1994) HDRip от Scarabey | Р | Режиссерская версия торрент скачать бесплатно
  • Прирожденные убийцы / Natural Born Killers (1994) BDRip от HQ-ViDEO | Theatrical Cut | P скачать торрент бесплатно
  • Прирожденные убийцы / Natural Born Killers (1994) BDRemux 1080p | P, P2, A скачать торрент бесплатно


    • Комментарии (0):

      Информация

      Информация

        Посетители, находящиеся в группе Гости, не могут оставлять комментарии в данной новости.

        ↓ Меню



        ↓ Опрос

        А Вы добавили сайт в закладки?
        Да
        Не


        Top 10 за неделю (Фильмы)