.
Авторизация | Регистрация
Хочешь лучшие торренты? Добавь свой email!
Добавить
» » Лиззи / Lizzie (2013) WEB-DLRip от BitTracker | L2 скачать через торрент бесплатно




    Лиззи / Lizzie (2013) WEB-DLRip от BitTracker | L2 скачать через торрент бесплатно

    Опубликовал: Админ | Дата: 27-02-2015, 11:09 | Просмотров: 337



    Информация о фильме
    Название: Лиззи
    Оригинальное название: Lizzie
    Год выхода: 2013
    Жанр: Триллер, ужасы
    Режиссер: Дэвид Данн мл. / David Dunn Jr.
    В ролях: Аманда Бэйкер, Лейф Холт, Корбин Бернсен, Кэйтлин Кармайкл, Синди Баэр, Шона Уолрод, Гэри Бьюзи, Джерри Бедноб, Эрик Фишер

    О фильме:
    Молодая девушка возвращается в семейный дом, который покинула давным-давно. Она совсем не помнит своего прошлого, как и того, что ее семейный дом - это место, где 4 августа 1892 года были убиты родители девочки Лиззи Борден. А когда умерла и она сама, ее призрак вернулся, чтобы отомстить за свое изгнание...




    Страна: США
    Продолжительность: 01:26:11
    Перевод: Любительское (двухголосое) DeadSno den904

    Файл
    Кодек: XviD
    Качество: WEB-DLRip (Исх. WEB-DLRip 720p)
    Видео: 704x352 (2.00:1), 23.976 fps, XviD build 50 ~1072 kbps avg, 0.18 bit/pixel
    Звук: 48 kHz, MPEG Layer 3, 2 ch, ~128.00 kbps avg
    Субтитры: нет

    Семпл

    MediaInfo

    Общее
    Полное имя : S:ФильмыЛиззи. 2013. WEB-DLRip (AleksSin).avi
    Формат : AVI
    Формат/Информация : Audio Video Interleave
    Размер файла : 745 Мбайт
    Продолжительность : 1 ч. 26 м.
    Общий поток : 1209 Кбит/сек
    Программа кодирования : VirtualDubMod 1.5.10.3 | www.virtualdub-fr.org || (build 2550/release)
    Библиотека кодирования : VirtualDubMod build 2550/release

    Видео
    Идентификатор : 0
    Формат : MPEG-4 Visual
    Профиль формата : Advanced Simple@L5
    Параметр BVOP формата : 2
    Параметр QPel формата : Нет
    Параметр GMC формата : Без точки перехода
    Параметр матрицы формата : Default (H.263)
    Идентификатор кодека : XVID
    Идентификатор кодека/Подсказка : XviD
    Продолжительность : 1 ч. 26 м.
    Битрейт : 1072 Кбит/сек
    Ширина : 704 пикс.
    Высота : 352 пикс.
    Соотношение сторон : 2,000
    Частота кадров : 23,976 кадр/сек
    Цветовое пространство : YUV
    Подвыборка цветности : 4:2:0
    Битовая глубина : 8 бит
    Тип развёртки : Прогрессивная
    Метод сжатия : С потерями
    Бит/(Пиксели*Кадры) : 0.180
    Размер потока : 661 Мбайт (89%)
    Библиотека кодирования : XviD 1.2.1 (UTC 2008-12-04)

    Аудио
    Идентификатор : 1
    Формат : MPEG Audio
    Версия формата : Version 1
    Профиль формата : Layer 3
    Идентификатор кодека : 55
    Идентификатор кодека/Подсказка : MP3
    Продолжительность : 1 ч. 26 м.
    Вид битрейта : Постоянный
    Битрейт : 128 Кбит/сек
    Каналы : 2 канала
    Частота : 48,0 КГц
    Метод сжатия : С потерями
    Размер потока : 78,9 Мбайт (11%)
    Выравнивание : Соединение по промежуткам
    Продолжительность промежутка : 42 мс. (1,00 видеокадр)
    Время предзагрузки промежутка : 504 ms
    Библиотека кодирования : LAME3.99r
    Залил: AleksSin
    Размер: 745.35 MB (781557760 Bytes)


    Лиззи / Lizzie (2013) WEB-DLRip от BitTracker | L2 скачать через торрент бесплатно
    загрузка...
    Рейтинг →
     (голосов: 1, оценка 4/5, голосовать можно 1 раз )

    Другие торренты по теме:

  • Лиззи / Lizzie (2013) WEB-DLRip от INTERCINEMA | L2 скачать через торрент бесплатно
  • Лиззи / Lizzie (2013) WEB-DL 720p | L2
  • Лиззи / Lizzie (2013) BDRip 1080p от CINEMANIA | L2
  • Лиззи / Lizzie (2013) BDRip 720p от CINEMANIA | L2
  • Лиззи Магуайр / The Lizzie McGuire Movie (2003) WEB-DLRip от Deadmauvlad | P скачать через торрент бесплатно
  • Хроники Лиззи Борден / The Lizzie Borden Chronicles (2015) HDTVRip | ViruseProject


    • Комментарии (0):

      Информация

      Информация

        Посетители, находящиеся в группе Гости, не могут оставлять комментарии в данной новости.

        ↓ Меню



        ↓ Опрос

        А Вы добавили сайт в закладки?
        Да
        Не


        Top 10 за месяц (Фильмы)