.
Авторизация | Регистрация
Хочешь лучшие торренты? Добавь свой email!
Добавить
» » Армагеддец / The Worlds End (2013) WEB-DLRip от BitTracker | L1 скачать через торрент бесплатно




    Армагеддец / The Worlds End (2013) WEB-DLRip от BitTracker | L1 скачать через торрент бесплатно

    Опубликовал: Админ | Дата: 27-02-2015, 11:09 | Просмотров: 332



    Информация о фильме
    Название: Армагеддец
    Оригинальное название: The World;s End
    Год выхода: 2013
    Жанр: фантастика, боевик, комедия
    Режиссер: Эдгар Райт / Edgar Wright
    В ролях: Саймон Пегг, Ник Фрост, Пэдди Консидайн, Мартин Фриман, Эдди Марсан, Розамунд Пайк, Томас Ло, Захари Бэйлесс, Джаспер Ливайн, Джеймс Тарпи

    О фильме:
    Их подвиг был бы увековечен в книге рекордов Гиннеса, если бы они знали, что Гиннесс — это не только пиво. Пятеро друзей ставят себе высокую цель — организовать грандиозный забег по барам. Опасности подстерегают их на каждом шагу: красотка, от которой сходила с ума вся школа, так и тянет налево, в то время как справа надвигается таинственная угроза. В результате алкомарафон плавно переходит в реальный Армагеддец…




    Страна: Великобритания
    Продолжительность: 01:48:58
    Перевод: Любительское (одноголосое) VANO

    Файл
    Кодек: XviD
    Качество: WEB-DLRip (Исх. WEB-DLRip 720p)
    Видео: 640x272 (2.35:1), 24.000 fps, XviD build 50 ~821 kbps avg, 0.20 bit/pixel
    Звук: 48 kHz, MPEG Layer 3, 2 ch, ~128.00 kbps avg
    Субтитры: китайские (неотключаемые)

    Семпл

    MediaInfo

    Общее
    Полное имя : S:ФильмыАрмагеддец. 2013. WEB-DLRip (AleksSin).avi
    Формат : AVI
    Формат/Информация : Audio Video Interleave
    Размер файла : 747 Мбайт
    Продолжительность : 1 ч. 48 м.
    Общий поток : 958 Кбит/сек
    Программа кодирования : VirtualDubMod 1.5.10.3 | www.virtualdub-fr.org || (build 2550/release)
    Библиотека кодирования : VirtualDubMod build 2550/release

    Видео
    Идентификатор : 0
    Формат : MPEG-4 Visual
    Профиль формата : Advanced Simple@L5
    Параметр BVOP формата : 2
    Параметр QPel формата : Нет
    Параметр GMC формата : Без точки перехода
    Параметр матрицы формата : Default (H.263)
    Идентификатор кодека : XVID
    Идентификатор кодека/Подсказка : XviD
    Продолжительность : 1 ч. 48 м.
    Битрейт : 821 Кбит/сек
    Ширина : 640 пикс.
    Высота : 272 пикс.
    Соотношение сторон : 2,35:1
    Частота кадров : 24,000 кадр/сек
    Цветовое пространство : YUV
    Подвыборка цветности : 4:2:0
    Битовая глубина : 8 бит
    Тип развёртки : Прогрессивная
    Метод сжатия : С потерями
    Бит/(Пиксели*Кадры) : 0.196
    Размер потока : 640 Мбайт (86%)
    Библиотека кодирования : XviD 1.2.1 (UTC 2008-12-04)

    Аудио
    Идентификатор : 1
    Формат : MPEG Audio
    Версия формата : Version 1
    Профиль формата : Layer 3
    Идентификатор кодека : 55
    Идентификатор кодека/Подсказка : MP3
    Продолжительность : 1 ч. 48 м.
    Вид битрейта : Постоянный
    Битрейт : 128 Кбит/сек
    Каналы : 2 канала
    Частота : 48,0 КГц
    Метод сжатия : С потерями
    Размер потока : 99,8 Мбайт (13%)
    Выравнивание : Соединение по промежуткам
    Продолжительность промежутка : 42 мс. (1,00 видеокадр)
    Время предзагрузки промежутка : 504 ms
    Библиотека кодирования : LAME3.99r
    Залил: AleksSin
    Размер: 746.89 MB (783169536 Bytes)


    Армагеддец / The Worlds End (2013) WEB-DLRip от BitTracker | L1 скачать через торрент бесплатно
    загрузка...
    Рейтинг →
     (голосов: 1, оценка 5/5, голосовать можно 1 раз )

    Другие торренты по теме:

  • Армагеддец / The Worlds End (2013) WEBRip | L1
  • Армагеддец / The Worlds End (2013) WEB-DLRip от BitTracker
  • Армагеддец / The Worlds End (2013) BDRip 720p | L1 скачать через торрент бесплатно
  • Армагеддец / The Worlds End (2013) HDRip | L1 скачать через торрент бесплатно
  • Армагеддец / The Worlds End (2013) BDRip 720p от leonardo 59 Scarabey | L1
  • Армагеддец / The Worlds End (2013) BDRip 720p от CINEMANIA | L2
  • Армагеддец / The Worlds End (2013) BDRip 1080p от CINEMANIA | L2
  • Армагеддец / The Worlds End (2013) HDRip от CINEMANIA | L2


    • Комментарии (0):

      Информация

      Информация

        Посетители, находящиеся в группе Гости, не могут оставлять комментарии в данной новости.

        ↓ Меню



        ↓ Опрос

        А Вы добавили сайт в закладки?
        Да
        Не


        Top 10 за месяц (Фильмы)