.
Авторизация | Регистрация
Хочешь лучшие торренты? Добавь свой email!
Добавить
» » Повелитель мух / Lord of the Flies (1963) BDRip by msltel | P, P2 скачать через торрент бесплатно




    Повелитель мух / Lord of the Flies (1963) BDRip by msltel | P, P2 скачать через торрент бесплатно

    Опубликовал: Админ | Дата: 27-02-2015, 11:09 | Просмотров: 347



    Название: Повелитель мух
    Оригинальное название: Lord of the Flies
    Год выпуска: 1963
    Жанр: Триллер, драма, приключения
    Выпущено: Великобритания, Two Arts Ltd.
    Режиссер: Питер Брук
    В ролях: Джеймс Обри, Том Чэпин, Хью Эдвардс, Роджер Элвин, Том Геймен, Роджер Аллан, Дэвид Бранджис, Питер Дави, Кент Флетчер, Николас Хэммонд

    О фильме: Океан без конца и без края. Необитаемый островок. Жара, пальмы, бананы, кабаны, родник чистой пресной воды и... таинственная пещера. Именно на этот островок попадает отряд мальчишек, оставшихся в живых после авиакатастрофы. Неожиданный поворот судьбы подталкивает многих из них забыть обо всём: сначала о дисциплине и порядке, затем о дружбе и порядочности, а в конце концов - и о самой природе человеческой.

    Качество: BDRip
    Размер: 1.62 ГБ
    Продолжительность: 01:30:48

    Видео: XviD, 2097 Кбит/с, 704x512
    Аудио 1: русский, 48 kHz, AC3, 2 ch, 192 kbps avg, Профессиональный многоголосый, Мастер-Видео трейд
    Аудио 2: русский, 48 kHz, AC3, 1 ch, 128 kbps avg, Профессиональный двухголосый

    Внешние файлы
    Аудио: английский, 48 kHz, AC3, 1 ch, 128 kbps avg, Оригинал
    Субтитры: русские (R5)
    Субтитры: английские

    Исходник: bodia92

    Сравнение с исходником



    Награды
    Каннский кинофестиваль, 1963 год
    Номинации (1):
    Золотая пальмовая ветвь
    Из отзывов...
    Insognata

    Антиробинзонада, или Может быть зверь — это мы сами?…

    На дворе 20 век(фильм снят в 63г), время расцвета технической мощи человечества, развития науки и культуры. В этом пространстве всё кажется устойчивым, достигнутым раз и навсегда, неизменным и ведущим исключительно к светлому будущему, к бесконечному прогрессу во благо Человечеству.
    Но группе детей, по своей сути невинных и чистых созданий, довелось оказаться на необитаемом острове… Им приходится самим заботиться о себе, заново организовать общество. И первое, что оказывается необходимым -это власть. Второе — охота. Эти две вещи приводят к борьбе и убийству. Слой цивилизованности оказывается не таким уж прочным, он исчезает при первом соприкосновении человека с жизнью по законам Природы. Мы видим, как дети превращаются сначала в дикарей, прячущих свои лица под масками, а потом — в животноподобных существ, способных на всё.
    И хотя в финале звучит торжественная музыка, зритель понимает, что празднуется победа далеко не Человека Цивилизованного, а Человека Первобытного, который только и ждёт повода, чтобы, подобно зверю, вырваться из каждого из нас…
    Достойная экранизация романа Голдинга.

    9 из 10

    Кинопоиск
    MediaInfo
    Общее
    Полное имя : E:VideoPovelitel.muh.1963.XviD.BDRipPovelitel.muh.1963.eng.srt
    Формат : SubRip
    Размер файла : 45,2 Кбайт

    Текст
    Формат : SubRip
    Метод сжатия : Без потерь

    Общее
    Полное имя : E:VideoPovelitel.muh.1963.XviD.BDRipPovelitel.muh.1963.Original.eng.ac3
    Формат : AC-3
    Формат/Информация : Audio Coding 3
    Размер файла : 83,1 Мбайт
    Продолжительность : 1 ч. 30 м.
    Режим общего битрейта : Постоянный
    Общий поток : 128 Кбит/сек

    Аудио
    Формат : AC-3
    Формат/Информация : Audio Coding 3
    Расширение режима : CM (complete main)
    Параметр Endianness формата : Big
    Продолжительность : 1 ч. 30 м.
    Вид битрейта : Постоянный
    Битрейт : 128 Кбит/сек
    Каналы : 1 канал
    Расположение каналов : Front: C
    Частота : 48,0 КГц
    Битовая глубина : 16 бит
    Метод сжатия : С потерями
    Размер потока : 83,1 Мбайт (100%)

    Общее
    Полное имя : E:VideoPovelitel.muh.1963.XviD.BDRipPovelitel.muh.1963.rus.R5.srt
    Формат : SubRip
    Размер файла : 49,4 Кбайт

    Текст
    Формат : SubRip
    Метод сжатия : Без потерь

    Общее
    Полное имя : E:VideoPovelitel.muh.1963.XviD.BDRipPovelitel.muh.1963.XviD.BDRip.avi
    Формат : AVI
    Формат/Информация : Audio Video Interleave
    Размер файла : 1,54 Гбайт
    Продолжительность : 1 ч. 30 м.
    Общий поток : 2432 Кбит/сек
    Программа кодирования : VirtualDubMod 1.5.10.2 (build 2540/release)
    Библиотека кодирования : VirtualDubMod build 2540/release

    Видео
    Идентификатор : 0
    Формат : MPEG-4 Visual
    Профиль формата : Advanced Simple@L5
    Параметр BVOP формата : 1
    Параметр QPel формата : Нет
    Параметр GMC формата : Без точки перехода
    Параметр матрицы формата : Default (H.263)
    Режим смешивания : Сжатый битовый поток
    Идентификатор кодека : XVID
    Идентификатор кодека/Подсказка : XviD
    Продолжительность : 1 ч. 30 м.
    Битрейт : 2097 Кбит/сек
    Ширина : 704 пикселя
    Высота : 512 пикселей
    Соотношение сторон : 1,375
    Частота кадров : 23,976 кадра/сек
    Цветовое пространство : YUV
    Субдискретизация насыщенности : 4:2:0
    Битовая глубина : 8 бит
    Тип развёртки : Прогрессивная
    Метод сжатия : С потерями
    Бит/(Пиксели*Кадры) : 0.243
    Размер потока : 1,33 Гбайт (86%)
    Библиотека кодирования : XviD 1.2.1 (UTC 2008-12-04)

    Аудио #1
    Идентификатор : 1
    Формат : AC-3
    Формат/Информация : Audio Coding 3
    Расширение режима : CM (complete main)
    Параметр Endianness формата : Big
    Идентификатор кодека : 2000
    Продолжительность : 1 ч. 30 м.
    Вид битрейта : Постоянный
    Битрейт : 192 Кбит/сек
    Каналы : 2 канала
    Расположение каналов : Front: L R
    Частота : 48,0 КГц
    Битовая глубина : 16 бит
    Метод сжатия : С потерями
    Размер потока : 125 Мбайт (8%)
    Выравнивание : Разделение по промежуткам
    Продолжительность промежутка : 42 мс. (1,00 видеокадр)
    Время предзагрузки промежутка : 500 мс.

    Аудио #2
    Идентификатор : 2
    Формат : AC-3
    Формат/Информация : Audio Coding 3
    Расширение режима : CM (complete main)
    Параметр Endianness формата : Big
    Идентификатор кодека : 2000
    Продолжительность : 1 ч. 30 м.
    Вид битрейта : Постоянный
    Битрейт : 128 Кбит/сек
    Каналы : 1 канал
    Расположение каналов : Front: C
    Частота : 48,0 КГц
    Битовая глубина : 16 бит
    Метод сжатия : С потерями
    Размер потока : 83,1 Мбайт (5%)
    Выравнивание : Разделение по промежуткам
    Продолжительность промежутка : 42 мс. (1,00 видеокадр)
    Время предзагрузки промежутка : 500 мс.
    Скриншоты




    Залил: msltel
    Размер: 1.62 GB (1743298129 Bytes)

    Повелитель мух / Lord of the Flies (1963) BDRip by msltel | P, P2 скачать через торрент бесплатно
    загрузка...
    Рейтинг →
     (голосов: 1, оценка 4/5, голосовать можно 1 раз )

    Другие торренты по теме:

  • Повелитель мух / Lord of the Flies (1963) BDRip 1080p by msltel | P, P2
  • Повелитель мух / Lord of the Flies (1963) BDRip 720p by msltel | P, P2
  • Повелитель мух / Lord of the Flies (1963) BDRip-AVC от MediaClub | P, P2
  • Повелитель мух / Lord of the Flies (1963) BDRemux 1080p
  • Повелитель мух / Lord of the Flies (1990) BDRip 720p от Koenig | P, P2, A


    • Комментарии (0):

      Информация

      Информация

        Посетители, находящиеся в группе Гости, не могут оставлять комментарии в данной новости.

        ↓ Меню



        ↓ Опрос

        А Вы добавили сайт в закладки?
        Да
        Не


        Top 10 за месяц (Фильмы)