.
Авторизация | Регистрация
» » Ночь страха 2 / Fright Night 2 (2013) BDRip 720p | iTunes торрент скачать бесплатно




    Ночь страха 2 / Fright Night 2 (2013) BDRip 720p | iTunes торрент скачать бесплатно

    Опубликовал: Админ | Дата: 27-02-2015, 11:09 | Просмотров: 285



    Информация о фильме
    Название: Ночь страха 2
    Оригинальное название: Fright Night 2
    Год выхода: 2013
    Жанр: ужасы, комедия
    Режиссер: Эдуардо Родригез
    В ролях: Уилл Пэйн, Джейми Мюррэй, Шон Пауэр, Саша Паркинсон, Крис Уоллер, Джон-Кристиан Бейтман, Лиана Маргиняну, Алина Минзу, Ади Хостиук, Джоэль Коутинью

    О фильме: Молодые студенты колледжа внезапно узнают страшную правду о своем новом профессоре. Оказывается, их профессор — красивая молодая женщина Джерри Дэндридж — настоящая вампирша! Пытаясь донести это до остальных, ребята, сами того не желая, подписали себе смертный приговор. Потому что Джерри совершенно не хочет, чтобы ее тайна стала достоянием общественности…



    Выпущено: США
    Продолжительность: 01:39:41
    Озвучивание: Профессиональное (многоголосное) Лицензия/iTunes

    Файл
    Формат: MKV
    Качество: BDRip 720p
    Видео: 5634 kb/s, 1280x720
    Аудио: Russian: AC3, 384 kb/s (6 ch) / English: AC3, 640 kb/s (6 ch)
    Субтитры: English
    Дополнительно: Сохранены чаптеры как на Blu-Ray





    MI

    Format : Matroska
    Format version : Version 4 / Version 2
    File size : 4.63 GiB
    Duration : 1h 39mn
    Overall bit rate : 6 642 Kbps
    Encoded date : UTC 2013-10-19 13:14:19
    Writing application : mkvmerge v6.1.0 (;Old Devil;) built on Mar 4 2013 09:10:42
    Writing library : libebml v1.3.0 libmatroska v1.4.0

    Video
    ID : 1
    Format : AVC
    Format/Info : Advanced Video Codec
    Format profile : High@L4.1
    Format settings, CABAC : Yes
    Format settings, ReFrames : 9 frames
    Codec ID : V_MPEG4/ISO/AVC
    Duration : 1h 39mn
    Bit rate : 5 634 Kbps
    Width : 1 280 pixels
    Height : 720 pixels
    Display aspect ratio : 16:9
    Frame rate : 23.976 fps
    Color space : YUV
    Chroma subsampling : 4:2:0
    Bit depth : 8 bits
    Scan type : Progressive
    Bits/(Pixel*Frame) : 0.255
    Stream size : 3.82 GiB (83%)
    Writing library : x264 core 129 r2245 704 36 8e61944 tMod MixAQ 8-bit@4:2:0 X86_64
    Encoding settings : cabac=1 / ref=9 / deblock=1:-3:-3 / analyse=0x3:0x133 / me=umh / subme=11 / psy=1 / fade_compensate=0.00 / psy_rd=1.00:0.10 / mixed_ref=1 / me_range=32 / chroma_me=1 / trellis=2 / 8x8dct=1 / cqm=0 / deadzone=21,11 / fast_pskip=0 / chroma_qp_offset=-3 / threads=18 / lookahead_threads=3 / sliced_threads=0 / nr=0 / decimate=1 / interlaced=0 / bluray_compat=0 / constrained_intra=0 / fgo=0 / bframes=8 / b_pyramid=2 / b_adapt=2 / b_bias=0 / direct=3 / weightb=1 / open_gop=0 / weightp=2 / keyint=250 / keyint_min=23 / scenecut=40 / intra_refresh=0 / rc=2pass / mbtree=0 / bitrate=5634 / ratetol=1.0 / qcomp=0.70 / qpmin=0 / qpmax=69 / qpstep=4 / cplxblur=20.0 / qblur=0.5 / ip_ratio=1.40 / pb_ratio=1.30 / aq=3 / aq-strength=0.90 / aq-sensitivity=10.00 / aq-ifactor=1.00 / aq-pfactor=1.00 / aq-bfactor=1.00 / aq2=0
    Language : English
    Default : Yes
    Forced : No

    Audio #1
    ID : 2
    Format : AC-3
    Format/Info : Audio Coding 3
    Mode extension : CM (complete main)
    Format settings, Endianness : Big
    Codec ID : A_AC3
    Duration : 1h 39mn
    Bit rate mode : Constant
    Bit rate : 384 Kbps
    Channel(s) : 6 channels
    Channel positions : Front: L C R, Side: L R, LFE
    Sampling rate : 48.0 KHz
    Bit depth : 16 bits
    Compression mode : Lossy
    Stream size : 274 MiB (6%)
    Language : Russian
    Default : Yes
    Forced : No

    Audio #2
    ID : 3
    Format : AC-3
    Format/Info : Audio Coding 3
    Mode extension : CM (complete main)
    Format settings, Endianness : Big
    Codec ID : A_AC3
    Duration : 1h 39mn
    Bit rate mode : Constant
    Bit rate : 640 Kbps
    Channel(s) : 6 channels
    Channel positions : Front: L C R, Side: L R, LFE
    Sampling rate : 48.0 KHz
    Bit depth : 16 bits
    Compression mode : Lossy
    Stream size : 456 MiB (10%)
    Language : English
    Default : No
    Forced : No

    Text
    ID : 4
    Format : UTF-8
    Codec ID : S_TEXT/UTF8
    Codec ID/Info : UTF-8 Plain Text
    Language : English
    Default : No
    Forced : No

    Menu
    00:00:00.000 : en:00:00:00.000
    00:04:26.266 : en:00:04:26.266
    00:07:53.973 : en:00:07:53.973
    00:12:35.713 : en:00:12:35.713
    00:14:43.549 : en:00:14:43.549
    00:18:23.143 : en:00:18:23.143
    00:24:15.328 : en:00:24:15.328
    00:27:25.352 : en:00:27:25.352
    00:32:58.810 : en:00:32:58.810
    00:35:49.772 : en:00:35:49.772
    00:39:04.383 : en:00:39:04.383
    00:46:16.982 : en:00:46:16.982
    00:50:34.406 : en:00:50:34.406
    00:56:34.182 : en:00:56:34.182
    01:03:10.286 : en:01:03:10.286
    01:06:37.868 : en:01:06:37.868
    01:10:28.599 : en:01:10:28.599
    01:12:00.149 : en:01:12:00.149
    01:14:49.943 : en:01:14:49.943
    01:20:10.138 : en:01:20:10.138
    01:25:10.480 : en:01:25:10.480
    01:28:41.274 : en:01:28:41.274
    01:33:22.388 : en:01:33:22.388
    01:36:09.764 : en:01:36:09.764
    Скриншоты

    Размер: 4.63 GB (4966258839 Bytes)

    Ночь страха 2 / Fright Night 2 (2013) BDRip 720p | iTunes торрент скачать бесплатно
    загрузка...
    Рейтинг →
     (голосов: 1, оценка 4/5, голосовать можно 1 раз )

    Другие торренты по теме:

  • Ночь страха / Fright Night (2011) HDRip-AVC | D торрент скачать бесплатно
  • Ночь страха 2 / Fright Night 2 (2013) BDRip 720p | L1 торрент скачать бесплатно
  • Ночь страха 2 / Fright Night 2 (2013) HDRip | L1 торрент скачать бесплатно
  • Ночь страха 2 / Fright Night 2 (2013) DVDRip | L1 торрент скачать бесплатно
  • Ночь страха 2 / Fright Night 2 (2013) HDRip | L2 скачать через торрент бесплатно
  • Ночь страха 2 / Fright Night 2 (2013) BDRip 720p | L2, L1 скачать через торрент бесплатно
  • Ночь страха 2 / Fright Night 2 (2013) BDRip 720p | L2 торрент скачать бесплатно
  • Ночь страха 2 / Fright Night 2 (2013) HDRip | iTunes торрент скачать бесплатно


    • Комментарии (0):

      Информация

      Информация

        Посетители, находящиеся в группе Гости, не могут оставлять комментарии в данной новости.

        ↓ Меню



        ↓ Опрос

        А Вы добавили сайт в закладки?
        Да
        Не


        Top 10 за неделю (Фильмы)