.
Авторизация | Регистрация
Хочешь лучшие торренты? Добавь свой email!
Добавить
» » Армагеддец / The Worlds End (2013) WEB-DLRip от BitTracker торрент скачать бесплатно




    Армагеддец / The Worlds End (2013) WEB-DLRip от BitTracker торрент скачать бесплатно

    Опубликовал: Админ | Дата: 27-02-2015, 11:09 | Просмотров: 952



    Информация о фильме
    Название: Армагеддец
    Оригинальное название: The World;s End
    Год выхода: 2013
    Жанр: фантастика, боевик, комедия
    Режиссер: Эдгар Райт / Edgar Wright
    В ролях: Саймон Пегг, Ник Фрост, Пэдди Консидайн, Мартин Фриман, Эдди Марсан, Розамунд Пайк, Томас Ло, Захари Бэйлесс, Джаспер Ливайн, Джеймс Тарпи

    О фильме:
    Их подвиг был бы увековечен в книге рекордов Гиннеса, если бы они знали, что Гиннесс — это не только пиво. Пятеро друзей ставят себе высокую цель — организовать грандиозный забег по барам. Опасности подстерегают их на каждом шагу: красотка, от которой сходила с ума вся школа, так и тянет налево, в то время как справа надвигается таинственная угроза. В результате алкомарафон плавно переходит в реальный Армагеддец…




    Страна: Великобритания
    Продолжительность: 01:48:58
    Перевод: Любительское (одноголосое) VANO

    Файл
    Кодек: XviD
    Качество: WEB-DLRip (Исх. WEB-DLRip 720p)
    Видео: 720x304 (2.37:1), 24.000 fps, XviD build 50 ~1707 kbps avg, 0.33 bit/pixel
    Звук: 48 kHz, AC3 Dolby Digital, 2/0 (L,R) ch, ~192.00 kbps avg
    Субтитры: китайские (неотключаемые)

    Семпл

    MediaInfo

    Общее
    Полное имя : S:ФильмыАрмагеддец. 2013. WEB-DLRip. 1,45 (AleksSin).avi
    Формат : AVI
    Формат/Информация : Audio Video Interleave
    Размер файла : 1,45 Гбайт
    Продолжительность : 1 ч. 48 м.
    Общий поток : 1908 Кбит/сек
    Программа кодирования : VirtualDubMod 1.5.10.3 | www.virtualdub-fr.org || (build 2550/release)
    Библиотека кодирования : VirtualDubMod build 2550/release

    Видео
    Идентификатор : 0
    Формат : MPEG-4 Visual
    Профиль формата : Advanced Simple@L5
    Параметр BVOP формата : 2
    Параметр QPel формата : Нет
    Параметр GMC формата : Без точки перехода
    Параметр матрицы формата : Default (H.263)
    Идентификатор кодека : XVID
    Идентификатор кодека/Подсказка : XviD
    Продолжительность : 1 ч. 48 м.
    Битрейт : 1707 Кбит/сек
    Ширина : 720 пикс.
    Высота : 304 пикс.
    Соотношение сторон : 2,35:1
    Частота кадров : 24,000 кадр/сек
    Цветовое пространство : YUV
    Подвыборка цветности : 4:2:0
    Битовая глубина : 8 бит
    Тип развёртки : Прогрессивная
    Метод сжатия : С потерями
    Бит/(Пиксели*Кадры) : 0.325
    Размер потока : 1,30 Гбайт (89%)
    Библиотека кодирования : XviD 1.2.1 (UTC 2008-12-04)

    Аудио
    Идентификатор : 1
    Формат : AC-3
    Формат/Информация : Audio Coding 3
    Расширение режима : CM (complete main)
    Идентификатор кодека : 2000
    Продолжительность : 1 ч. 48 м.
    Вид битрейта : Постоянный
    Битрейт : 192 Кбит/сек
    Каналы : 2 канала
    Расположение каналов : Front: L R
    Частота : 48,0 КГц
    Битовая глубина : 16 бит
    Метод сжатия : С потерями
    Размер потока : 150 Мбайт (10%)
    Выравнивание : Разделение по промежуткам
    Продолжительность промежутка : 42 мс. (1,00 видеокадр)
    Время предзагрузки промежутка : 500 ms

    Скриншоты


    Релиз от:
    Залил: AleksSin
    Размер: 1.45 GB (1559640064 Bytes)

    Армагеддец / The Worlds End (2013) WEB-DLRip от BitTracker торрент скачать бесплатно
    загрузка...
    Рейтинг →
     (голосов: 1, оценка 4/5, голосовать можно 1 раз )

    Другие торренты по теме:



      Комментарии (0):

      Информация

      Информация

        Посетители, находящиеся в группе Гости, не могут оставлять комментарии в данной новости.

        ↓ Меню



        ↓ Опрос

        А Вы добавили сайт в закладки?
        Да
        Не


        Top 10 за месяц (Фильмы)